  0
SECTION
  2
HEADER
  9
$ACADVER
  1
AC1015
  9
$ACADMAINTVER
 70
     6
  9
$DWGCODEPAGE
  3
ANSI_1252
  9
$INSBASE
 10
0.0
 20
0.0
 30
0.0
  9
$EXTMIN
 10
-34.57906928329214
 20
239.218025361884
 30
0.0
  9
$EXTMAX
 10
385.420930716708
 20
833.2180253618842
 30
0.0
  9
$LIMMIN
 10
0.0
 20
0.0
  9
$LIMMAX
 10
12.0
 20
9.0
  9
$ORTHOMODE
 70
     0
  9
$REGENMODE
 70
     1
  9
$FILLMODE
 70
     1
  9
$QTEXTMODE
 70
     0
  9
$MIRRTEXT
 70
     1
  9
$LTSCALE
 40
1.0
  9
$ATTMODE
 70
     1
  9
$TEXTSIZE
 40
0.2
  9
$TRACEWID
 40
0.05
  9
$TEXTSTYLE
  7
Standard
  9
$CLAYER
  8
0
  9
$CELTYPE
  6
ByLayer
  9
$CECOLOR
 62
   256
  9
$CELTSCALE
 40
1.0
  9
$DISPSILH
 70
     0
  9
$DIMSCALE
 40
1.0
  9
$DIMASZ
 40
0.18
  9
$DIMEXO
 40
0.0625
  9
$DIMDLI
 40
0.38
  9
$DIMRND
 40
0.0
  9
$DIMDLE
 40
0.0
  9
$DIMEXE
 40
0.18
  9
$DIMTP
 40
0.0
  9
$DIMTM
 40
0.0
  9
$DIMTXT
 40
0.18
  9
$DIMCEN
 40
0.09
  9
$DIMTSZ
 40
0.0
  9
$DIMTOL
 70
     0
  9
$DIMLIM
 70
     0
  9
$DIMTIH
 70
     1
  9
$DIMTOH
 70
     1
  9
$DIMSE1
 70
     0
  9
$DIMSE2
 70
     0
  9
$DIMTAD
 70
     0
  9
$DIMZIN
 70
     0
  9
$DIMBLK
  1

  9
$DIMASO
 70
     1
  9
$DIMSHO
 70
     1
  9
$DIMPOST
  1

  9
$DIMAPOST
  1

  9
$DIMALT
 70
     0
  9
$DIMALTD
 70
     2
  9
$DIMALTF
 40
25.4
  9
$DIMLFAC
 40
1.0
  9
$DIMTOFL
 70
     0
  9
$DIMTVP
 40
0.0
  9
$DIMTIX
 70
     0
  9
$DIMSOXD
 70
     0
  9
$DIMSAH
 70
     0
  9
$DIMBLK1
  1

  9
$DIMBLK2
  1

  9
$DIMSTYLE
  2
Standard
  9
$DIMCLRD
 70
     0
  9
$DIMCLRE
 70
     0
  9
$DIMCLRT
 70
     0
  9
$DIMTFAC
 40
1.0
  9
$DIMGAP
 40
0.09
  9
$DIMJUST
 70
     0
  9
$DIMSD1
 70
     0
  9
$DIMSD2
 70
     0
  9
$DIMTOLJ
 70
     1
  9
$DIMTZIN
 70
     0
  9
$DIMALTZ
 70
     0
  9
$DIMALTTZ
 70
     0
  9
$DIMUPT
 70
     0
  9
$DIMDEC
 70
     4
  9
$DIMTDEC
 70
     4
  9
$DIMALTU
 70
     2
  9
$DIMALTTD
 70
     2
  9
$DIMTXSTY
  7
Standard
  9
$DIMAUNIT
 70
     0
  9
$DIMADEC
 70
     0
  9
$DIMALTRND
 40
0.0
  9
$DIMAZIN
 70
     0
  9
$DIMDSEP
 70
    46
  9
$DIMATFIT
 70
     3
  9
$DIMFRAC
 70
     0
  9
$DIMLDRBLK
  1

  9
$DIMLUNIT
 70
     2
  9
$DIMLWD
 70
    -2
  9
$DIMLWE
 70
    -2
  9
$DIMTMOVE
 70
     0
  9
$LUNITS
 70
     2
  9
$LUPREC
 70
     4
  9
$SKETCHINC
 40
0.1
  9
$FILLETRAD
 40
0.5
  9
$AUNITS
 70
     0
  9
$AUPREC
 70
     0
  9
$MENU
  1
.
  9
$ELEVATION
 40
0.0
  9
$PELEVATION
 40
0.0
  9
$THICKNESS
 40
0.0
  9
$LIMCHECK
 70
     0
  9
$CHAMFERA
 40
0.5
  9
$CHAMFERB
 40
0.5
  9
$CHAMFERC
 40
1.0
  9
$CHAMFERD
 40
0.0
  9
$SKPOLY
 70
     0
  9
$TDCREATE
 40
2456997.441778449
  9
$TDUCREATE
 40
2456997.400111782
  9
$TDUPDATE
 40
2456997.441778623
  9
$TDUUPDATE
 40
2456997.400111956
  9
$TDINDWG
 40
0.0000000116
  9
$TDUSRTIMER
 40
0.0000000116
  9
$USRTIMER
 70
     1
  9
$ANGBASE
 50
0.0
  9
$ANGDIR
 70
     0
  9
$PDMODE
 70
     0
  9
$PDSIZE
 40
0.0
  9
$PLINEWID
 40
0.0
  9
$SPLFRAME
 70
     0
  9
$SPLINETYPE
 70
     6
  9
$SPLINESEGS
 70
     8
  9
$HANDSEED
  5
27B
  9
$SURFTAB1
 70
     6
  9
$SURFTAB2
 70
     6
  9
$SURFTYPE
 70
     6
  9
$SURFU
 70
     6
  9
$SURFV
 70
     6
  9
$UCSBASE
  2

  9
$UCSNAME
  2

  9
$UCSORG
 10
0.0
 20
0.0
 30
0.0
  9
$UCSXDIR
 10
1.0
 20
0.0
 30
0.0
  9
$UCSYDIR
 10
0.0
 20
1.0
 30
0.0
  9
$UCSORTHOREF
  2

  9
$UCSORTHOVIEW
 70
     0
  9
$UCSORGTOP
 10
0.0
 20
0.0
 30
0.0
  9
$UCSORGBOTTOM
 10
0.0
 20
0.0
 30
0.0
  9
$UCSORGLEFT
 10
0.0
 20
0.0
 30
0.0
  9
$UCSORGRIGHT
 10
0.0
 20
0.0
 30
0.0
  9
$UCSORGFRONT
 10
0.0
 20
0.0
 30
0.0
  9
$UCSORGBACK
 10
0.0
 20
0.0
 30
0.0
  9
$PUCSBASE
  2

  9
$PUCSNAME
  2

  9
$PUCSORG
 10
0.0
 20
0.0
 30
0.0
  9
$PUCSXDIR
 10
1.0
 20
0.0
 30
0.0
  9
$PUCSYDIR
 10
0.0
 20
1.0
 30
0.0
  9
$PUCSORTHOREF
  2

  9
$PUCSORTHOVIEW
 70
     0
  9
$PUCSORGTOP
 10
0.0
 20
0.0
 30
0.0
  9
$PUCSORGBOTTOM
 10
0.0
 20
0.0
 30
0.0
  9
$PUCSORGLEFT
 10
0.0
 20
0.0
 30
0.0
  9
$PUCSORGRIGHT
 10
0.0
 20
0.0
 30
0.0
  9
$PUCSORGFRONT
 10
0.0
 20
0.0
 30
0.0
  9
$PUCSORGBACK
 10
0.0
 20
0.0
 30
0.0
  9
$USERI1
 70
     0
  9
$USERI2
 70
     0
  9
$USERI3
 70
     0
  9
$USERI4
 70
     0
  9
$USERI5
 70
     0
  9
$USERR1
 40
18.1
  9
$USERR2
 40
0.0
  9
$USERR3
 40
0.0
  9
$USERR4
 40
0.0
  9
$USERR5
 40
0.0
  9
$WORLDVIEW
 70
     1
  9
$SHADEDGE
 70
     3
  9
$SHADEDIF
 70
    70
  9
$TILEMODE
 70
     1
  9
$MAXACTVP
 70
    64
  9
$PINSBASE
 10
0.0
 20
0.0
 30
0.0
  9
$PLIMCHECK
 70
     0
  9
$PEXTMIN
 10
1.00000000000000E+20
 20
1.00000000000000E+20
 30
1.00000000000000E+20
  9
$PEXTMAX
 10
-1.00000000000000E+20
 20
-1.00000000000000E+20
 30
-1.00000000000000E+20
  9
$PLIMMIN
 10
0.0
 20
0.0
  9
$PLIMMAX
 10
12.0
 20
9.0
  9
$UNITMODE
 70
     0
  9
$VISRETAIN
 70
     1
  9
$PLINEGEN
 70
     0
  9
$PSLTSCALE
 70
     1
  9
$TREEDEPTH
 70
  3020
  9
$CMLSTYLE
  2
Standard
  9
$CMLJUST
 70
     0
  9
$CMLSCALE
 40
1.0
  9
$PROXYGRAPHICS
 70
     1
  9
$MEASUREMENT
 70
     1
  9
$CELWEIGHT
370
    -1
  9
$ENDCAPS
280
     0
  9
$JOINSTYLE
280
     0
  9
$LWDISPLAY
290
     0
  9
$INSUNITS
 70
     4
  9
$HYPERLINKBASE
  1

  9
$STYLESHEET
  1

  9
$XEDIT
290
     1
  9
$CEPSNTYPE
380
     0
  9
$PSTYLEMODE
290
     1
  9
$FINGERPRINTGUID
  2
{1F377A72-9EC8-45F7-B3CD-5F5939557586}
  9
$VERSIONGUID
  2
{FAEB1C32-E019-11D5-929B-00C0DF256EC4}
  9
$EXTNAMES
290
     1
  9
$PSVPSCALE
 40
0.0
  9
$OLESTARTUP
290
     0
  0
ENDSEC
  0
SECTION
  2
CLASSES
  0
CLASS
  1
ACDBDICTIONARYWDFLT
  2
AcDbDictionaryWithDefault
  3
ObjectDBX Classes
 90
        0
280
     0
281
     0
  0
CLASS
  1
VISUALSTYLE
  2
AcDbVisualStyle
  3
ObjectDBX Classes
 90
     4095
280
     0
281
     0
  0
CLASS
  1
MATERIAL
  2
AcDbMaterial
  3
ObjectDBX Classes
 90
     1153
280
     0
281
     0
  0
CLASS
  1
DICTIONARYVAR
  2
AcDbDictionaryVar
  3
ObjectDBX Classes
 90
        0
280
     0
281
     0
  0
CLASS
  1
ACDBPLACEHOLDER
  2
AcDbPlaceHolder
  3
ObjectDBX Classes
 90
        0
280
     0
281
     0
  0
CLASS
  1
LAYOUT
  2
AcDbLayout
  3
ObjectDBX Classes
 90
        0
280
     0
281
     0
  0
ENDSEC
  0
SECTION
  2
TABLES
  0
TABLE
  2
VPORT
  5
8
330
0
100
AcDbSymbolTable
 70
     1
  0
VPORT
  5
29
330
8
100
AcDbSymbolTableRecord
100
AcDbViewportTableRecord
  2
*Active
 70
     0
 10
0.0
 20
0.0
 11
1.0
 21
1.0
 12
175.4209307167079
 22
536.2180253618841
 13
0.0
 23
0.0
 14
0.5
 24
0.5
 15
0.5
 25
0.5
 16
0.0
 26
0.0
 36
1.0
 17
0.0
 27
0.0
 37
0.0
 40
653.4000000000003
 41
1.60267857142857
 42
50.0
 43
0.0
 44
0.0
 50
0.0
 51
0.0
 71
     0
 72
   100
 73
     1
 74
     3
 75
     0
 76
     0
 77
     0
 78
     0
281
     0
 65
     1
110
0.0
120
0.0
130
0.0
111
1.0
121
0.0
131
0.0
112
0.0
122
1.0
132
0.0
 79
     0
146
0.0
  0
ENDTAB
  0
TABLE
  2
LTYPE
  5
5
330
0
100
AcDbSymbolTable
 70
     8
  0
LTYPE
  5
14
330
5
100
AcDbSymbolTableRecord
100
AcDbLinetypeTableRecord
  2
ByBlock
 70
     0
  3

 72
    65
 73
     0
 40
0.0
  0
LTYPE
  5
15
330
5
100
AcDbSymbolTableRecord
100
AcDbLinetypeTableRecord
  2
ByLayer
 70
     0
  3

 72
    65
 73
     0
 40
0.0
  0
LTYPE
  5
16
330
5
100
AcDbSymbolTableRecord
100
AcDbLinetypeTableRecord
  2
Continuous
 70
     0
  3
Solid line
 72
    65
 73
     0
 40
0.0
  0
LTYPE
  5
3F
330
5
100
AcDbSymbolTableRecord
100
AcDbLinetypeTableRecord
  2
DASHED
 70
     0
  3
Dashed
 72
    65
 73
     2
 40
15.0
 49
7.0
 74
     0
 49
-8.0
 74
     0
  0
LTYPE
  5
40
330
5
100
AcDbSymbolTableRecord
100
AcDbLinetypeTableRecord
  2
DOTTED
 70
     0
  3
Dotted
 72
    65
 73
     2
 40
1.0
 49
0.0
 74
     0
 49
-1.0
 74
     0
  0
LTYPE
  5
41
330
5
100
AcDbSymbolTableRecord
100
AcDbLinetypeTableRecord
  2
DOT_CENTER
 70
     0
  3
Dot_Center
 72
    65
 73
     4
 40
14.0
 49
12.0
 74
     0
 49
-1.0
 74
     0
 49
0.0
 74
     0
 49
-1.0
 74
     0
  0
LTYPE
  5
42
330
5
100
AcDbSymbolTableRecord
100
AcDbLinetypeTableRecord
  2
LONG_DASHED
 70
     0
  3
Long_Dashed
 72
    65
 73
     2
 40
15.0
 49
10.0
 74
     0
 49
-5.0
 74
     0
  0
LTYPE
  5
43
330
5
100
AcDbSymbolTableRecord
100
AcDbLinetypeTableRecord
  2
DASH_CENTER
 70
     0
  3
Dash_Center
 72
    65
 73
     4
 40
14.0
 49
11.0
 74
     0
 49
-1.0
 74
     0
 49
1.0
 74
     0
 49
-1.0
 74
     0
  0
LTYPE
  5
44
330
5
100
AcDbSymbolTableRecord
100
AcDbLinetypeTableRecord
  2
PHANTOM
 70
     0
  3
Phantom
 72
    65
 73
     6
 40
13.0
 49
10.0
 74
     0
 49
-1.0
 74
     0
 49
0.0
 74
     0
 49
-1.0
 74
     0
 49
0.0
 74
     0
 49
-1.0
 74
     0
  0
LTYPE
  5
45
330
5
100
AcDbSymbolTableRecord
100
AcDbLinetypeTableRecord
  2
CENTER_DASH_DASH
 70
     0
  3
Center_Dash_Dash
 72
    65
 73
     6
 40
14.0
 49
9.0
 74
     0
 49
-1.0
 74
     0
 49
1.0
 74
     0
 49
-1.0
 74
     0
 49
1.0
 74
     0
 49
-1.0
 74
     0
  0
ENDTAB
  0
TABLE
  2
LAYER
  5
2
330
0
100
AcDbSymbolTable
 70
     2
  0
LAYER
  5
10
330
2
100
AcDbSymbolTableRecord
100
AcDbLayerTableRecord
  2
0
 70
     0
 62
     7
  6
Continuous
370
    -3
390
F
  0
LAYER
  5
46
330
2
100
AcDbSymbolTableRecord
100
AcDbLayerTableRecord
  2
1
 70
     0
 62
     7
  6
Continuous
370
    -3
390
F
  0
ENDTAB
  0
TABLE
  2
STYLE
  5
3
330
0
100
AcDbSymbolTable
 70
     4
  0
STYLE
  5
11
330
3
100
AcDbSymbolTableRecord
100
AcDbTextStyleTableRecord
  2
Standard
 70
     0
 40
0.0
 41
1.0
 50
0.0
 71
     0
 42
0.2
  3
txt
  4

  0
STYLE
  5
9B
330
3
100
AcDbSymbolTableRecord
100
AcDbTextStyleTableRecord
  2
CONVERTER_11
 70
     0
 40
0.0
 41
1.2
 50
0.0
 71
     0
 42
0.2
  3
ARIAL.TTF
  4

  0
STYLE
  5
A0
330
3
100
AcDbSymbolTableRecord
100
AcDbTextStyleTableRecord
  2
CONVERTER_12
 70
     0
 40
0.0
 41
1.38
 50
0.0
 71
     0
 42
0.2
  3
ARIAL.TTF
  4

  0
STYLE
  5
233
330
3
100
AcDbSymbolTableRecord
100
AcDbTextStyleTableRecord
  2
CONVERTER_13
 70
     0
 40
0.0
 41
0.95
 50
0.0
 71
     0
 42
0.2
  3
simplex.shx
  4

  0
ENDTAB
  0
TABLE
  2
VIEW
  5
6
330
0
100
AcDbSymbolTable
 70
     0
  0
ENDTAB
  0
TABLE
  2
UCS
  5
7
330
0
100
AcDbSymbolTable
 70
     0
  0
ENDTAB
  0
TABLE
  2
APPID
  5
9
330
0
100
AcDbSymbolTable
 70
     1
  0
APPID
  5
12
330
9
100
AcDbSymbolTableRecord
100
AcDbRegAppTableRecord
  2
ACAD
 70
     0
  0
ENDTAB
  0
TABLE
  2
DIMSTYLE
  5
A
330
0
100
AcDbSymbolTable
 70
     4
100
AcDbDimStyleTable
  0
DIMSTYLE
105
27
330
A
100
AcDbSymbolTableRecord
100
AcDbDimStyleTableRecord
  2
Standard
 70
     0
178
     0
340
11
  0
DIMSTYLE
105
237
102
{ACAD_REACTORS
330
238
102
}
330
A
100
AcDbSymbolTableRecord
100
AcDbDimStyleTableRecord
  2
ME10_DIM_10
 70
     0
 41
6.0
 42
1.0
 44
2.0
 73
     0
 74
     0
 77
     1
 78
     8
140
6.0
147
4.0
172
     1
173
     1
174
     1
175
     1
176
     2
177
     2
271
     2
178
     4
271
     2
340
233
  0
DIMSTYLE
105
243
102
{ACAD_REACTORS
330
244
102
}
330
A
100
AcDbSymbolTableRecord
100
AcDbDimStyleTableRecord
  2
ME10_DIM_11
 70
     0
 41
6.0
 42
1.0
 44
2.0
 73
     0
 74
     0
 77
     1
 78
     8
140
6.0
147
4.0
172
     1
173
     1
174
     1
175
     1
176
     2
177
     2
271
     2
178
     4
271
     2
340
233
  0
DIMSTYLE
105
24E
102
{ACAD_REACTORS
330
24F
102
}
330
A
100
AcDbSymbolTableRecord
100
AcDbDimStyleTableRecord
  2
ME10_DIM_12
 70
     0
 41
6.0
 42
1.0
 44
2.0
 73
     0
 74
     0
 77
     1
 78
     8
140
6.0
147
4.0
172
     1
173
     1
174
     1
175
     1
176
     2
177
     2
271
     2
178
     4
271
     2
340
233
  0
ENDTAB
  0
TABLE
  2
BLOCK_RECORD
  5
1
330
0
100
AcDbSymbolTable
 70
     6
  0
BLOCK_RECORD
  5
1F
330
1
100
AcDbSymbolTableRecord
100
AcDbBlockTableRecord
  2
*Model_Space
340
22
  0
BLOCK_RECORD
  5
1B
330
1
100
AcDbSymbolTableRecord
100
AcDbBlockTableRecord
  2
*Paper_Space
340
1E
  0
BLOCK_RECORD
  5
23
330
1
100
AcDbSymbolTableRecord
100
AcDbBlockTableRecord
  2
*Paper_Space0
340
26
  0
BLOCK_RECORD
  5
47
330
1
100
AcDbSymbolTableRecord
100
AcDbBlockTableRecord
  2
_formato_A4
340
0
102
{BLKREFS
331
4B
102
}
  0
BLOCK_RECORD
  5
4A
330
1
100
AcDbSymbolTableRecord
100
AcDbBlockTableRecord
  2
A4
340
0
102
{BLKREFS
331
4E
102
}
  0
BLOCK_RECORD
  5
22D
330
1
100
AcDbSymbolTableRecord
100
AcDbBlockTableRecord
  2
*D3
340
0
  0
BLOCK_RECORD
  5
239
330
1
100
AcDbSymbolTableRecord
100
AcDbBlockTableRecord
  2
*D4
340
0
  0
BLOCK_RECORD
  5
245
330
1
100
AcDbSymbolTableRecord
100
AcDbBlockTableRecord
  2
*D5
340
0
  0
ENDTAB
  0
ENDSEC
  0
SECTION
  2
BLOCKS
  0
BLOCK
  5
20
330
1F
100
AcDbEntity
  8
0
100
AcDbBlockBegin
  2
*Model_Space
 70
     0
 10
0.0
 20
0.0
 30
0.0
  3
*Model_Space
  1

  0
ENDBLK
  5
21
330
1F
100
AcDbEntity
  8
0
100
AcDbBlockEnd
  0
BLOCK
  5
1C
330
1B
100
AcDbEntity
 67
     1
  8
0
100
AcDbBlockBegin
  2
*Paper_Space
 70
     0
 10
0.0
 20
0.0
 30
0.0
  3
*Paper_Space
  1

  0
ENDBLK
  5
1D
330
1B
100
AcDbEntity
 67
     1
  8
0
100
AcDbBlockEnd
  0
BLOCK
  5
24
330
23
100
AcDbEntity
  8
0
100
AcDbBlockBegin
  2
*Paper_Space0
 70
     0
 10
0.0
 20
0.0
 30
0.0
  3
*Paper_Space0
  1

  0
ENDBLK
  5
25
330
23
100
AcDbEntity
  8
0
100
AcDbBlockEnd
  0
BLOCK
  5
48
330
47
100
AcDbEntity
  8
0
100
AcDbBlockBegin
  2
_formato_A4
 70
     0
 10
494.470930716708
 20
321.068025361884
 30
0.0
  3
_formato_A4
  1

  0
LINE
  5
4F
330
47
100
AcDbEntity
  8
1
  6
Continuous
 62
     7
100
AcDbLine
 10
305.470930716708
 20
341.068025361884
 30
0.0
 11
489.470930716708
 21
341.068025361884
 31
0.0
  0
LINE
  5
50
330
47
100
AcDbEntity
  8
1
  6
Continuous
 62
     7
100
AcDbLine
 10
305.470930716708
 20
326.0680253618839
 30
0.0
 11
489.470930716708
 21
326.0680253618839
 31
0.0
  0
LINE
  5
51
330
47
100
AcDbEntity
  8
1
  6
Continuous
 62
     7
100
AcDbLine
 10
330.4709307167081
 20
356.068025361884
 30
0.0
 11
330.4709307167081
 21
361.068025361884
 31
0.0
  0
LINE
  5
52
330
47
100
AcDbEntity
  8
1
  6
Continuous
 62
     7
100
AcDbLine
 10
312.470930716708
 20
356.068025361884
 30
0.0
 11
312.470930716708
 21
361.068025361884
 31
0.0
  0
LINE
  5
53
330
47
100
AcDbEntity
  8
1
  6
Continuous
 62
     7
100
AcDbLine
 10
305.470930716708
 20
361.068025361884
 30
0.0
 11
489.470930716708
 21
361.068025361884
 31
0.0
  0
LINE
  5
54
330
47
100
AcDbEntity
  8
1
  6
Continuous
 62
     7
100
AcDbLine
 10
330.4709307167081
 20
351.068025361884
 30
0.0
 11
330.4709307167081
 21
356.068025361884
 31
0.0
  0
LINE
  5
55
330
47
100
AcDbEntity
  8
1
  6
Continuous
 62
     7
100
AcDbLine
 10
312.470930716708
 20
351.068025361884
 30
0.0
 11
312.470930716708
 21
356.068025361884
 31
0.0
  0
LINE
  5
56
330
47
100
AcDbEntity
  8
1
  6
Continuous
 62
     7
100
AcDbLine
 10
305.470930716708
 20
356.068025361884
 30
0.0
 11
489.470930716708
 21
356.068025361884
 31
0.0
  0
LINE
  5
57
330
47
100
AcDbEntity
  8
1
  6
Continuous
 62
     7
100
AcDbLine
 10
330.4709307167081
 20
346.068025361884
 30
0.0
 11
330.4709307167081
 21
351.068025361884
 31
0.0
  0
LINE
  5
58
330
47
100
AcDbEntity
  8
1
  6
Continuous
 62
     7
100
AcDbLine
 10
312.470930716708
 20
346.068025361884
 30
0.0
 11
312.470930716708
 21
351.068025361884
 31
0.0
  0
LINE
  5
59
330
47
100
AcDbEntity
  8
1
  6
Continuous
 62
     7
100
AcDbLine
 10
305.470930716708
 20
351.068025361884
 30
0.0
 11
489.470930716708
 21
351.068025361884
 31
0.0
  0
LINE
  5
5A
330
47
100
AcDbEntity
  8
1
  6
Continuous
 62
     7
100
AcDbLine
 10
330.4709307167081
 20
341.068025361884
 30
0.0
 11
330.4709307167081
 21
346.068025361884
 31
0.0
  0
LINE
  5
5B
330
47
100
AcDbEntity
  8
1
  6
Continuous
 62
     7
100
AcDbLine
 10
312.470930716708
 20
341.068025361884
 30
0.0
 11
312.470930716708
 21
346.068025361884
 31
0.0
  0
LINE
  5
5C
330
47
100
AcDbEntity
  8
1
  6
Continuous
 62
     7
100
AcDbLine
 10
305.470930716708
 20
346.068025361884
 30
0.0
 11
489.470930716708
 21
346.068025361884
 31
0.0
  0
LINE
  5
5D
102
{ACAD_REACTORS
330
A2
102
}
330
47
100
AcDbEntity
  8
1
  6
Continuous
 62
     7
100
AcDbLine
 10
480.3138055566138
 20
331.6260274422643
 30
0.0
 11
478.9804722232805
 21
330.8567966730337
 31
0.0
  0
LINE
  5
5E
102
{ACAD_REACTORS
330
A2
102
}
330
47
100
AcDbEntity
  8
1
  6
Continuous
 62
     7
100
AcDbLine
 10
479.1472314054507
 20
331.7226618945319
 30
0.0
 11
479.9806572542875
 21
332.2034844996302
 31
0.0
  0
LINE
  5
5F
102
{ACAD_REACTORS
330
A2
102
}
330
47
100
AcDbEntity
  8
1
  6
Continuous
 62
     7
100
AcDbLine
 10
479.1472314054507
 20
333.2346920285506
 30
0.0
 11
479.1472314054507
 21
331.7226618945319
 31
0.0
  0
LINE
  5
60
102
{ACAD_REACTORS
330
A2
102
}
330
47
100
AcDbEntity
  8
1
  6
Continuous
 62
     7
100
AcDbLine
 10
480.1472314054507
 20
333.2346920285506
 30
0.0
 11
479.1472314054507
 21
333.2346920285506
 31
0.0
  0
LINE
  5
61
102
{ACAD_REACTORS
330
A2
102
}
330
47
100
AcDbEntity
  8
1
  6
Continuous
 62
     7
100
AcDbLine
 10
479.1472314054507
 20
333.9013586952173
 30
0.0
 11
480.1472314054507
 21
333.9013586952173
 31
0.0
  0
LINE
  5
62
102
{ACAD_REACTORS
330
A2
102
}
330
47
100
AcDbEntity
  8
1
  6
Continuous
 62
     7
100
AcDbLine
 10
479.1472314054507
 20
335.4133888292359
 30
0.0
 11
479.1472314054507
 21
333.9013586952173
 31
0.0
  0
LINE
  5
63
102
{ACAD_REACTORS
330
A2
102
}
330
47
100
AcDbEntity
  8
1
  6
Continuous
 62
     7
100
AcDbLine
 10
479.9806572542875
 20
334.9325662241378
 30
0.0
 11
479.1472314054507
 21
335.4133888292359
 31
0.0
  0
LINE
  5
64
102
{ACAD_REACTORS
330
A2
102
}
330
47
100
AcDbEntity
  8
1
  6
Continuous
 62
     7
100
AcDbLine
 10
478.9804722232805
 20
336.2792540507343
 30
0.0
 11
480.3138055566138
 21
335.5100232815034
 31
0.0
  0
LINE
  5
65
102
{ACAD_REACTORS
330
A3
102
}
330
47
100
AcDbEntity
  8
1
  6
Continuous
 62
     7
100
AcDbLine
 10
471.8138980721173
 20
331.9147559709472
 30
0.0
 11
471.8138980721173
 21
335.2212947528207
 31
0.0
  0
LINE
  5
66
102
{ACAD_REACTORS
330
A3
102
}
330
47
100
AcDbEntity
  8
1
  6
Continuous
 62
     7
100
AcDbLine
 10
472.4805647387839
 20
332.1072772791473
 30
0.0
 11
472.4805647387839
 21
331.9147559709472
 31
0.0
  0
LINE
  5
67
102
{ACAD_REACTORS
330
A3
102
}
330
47
100
AcDbEntity
  8
1
  6
Continuous
 62
     7
100
AcDbLine
 10
472.4805647387839
 20
335.2212947528207
 30
0.0
 11
472.4805647387839
 21
332.1072772791473
 31
0.0
  0
LINE
  5
68
102
{ACAD_REACTORS
330
A4
102
}
330
47
100
AcDbEntity
  8
1
  6
Continuous
 62
     7
100
AcDbLine
 10
475.6473239209541
 20
329.5106428268798
 30
0.0
 11
473.480749769791
 21
330.7605894525509
 31
0.0
  0
LINE
  5
69
102
{ACAD_REACTORS
330
A4
102
}
330
47
100
AcDbEntity
  8
1
  6
Continuous
 62
     7
100
AcDbLine
 10
473.8138980721173
 20
331.3380465099167
 30
0.0
 11
475.9804722232805
 21
330.0880998842456
 31
0.0
  0
LINE
  5
6A
102
{ACAD_REACTORS
330
A4
102
}
330
47
100
AcDbEntity
  8
1
  6
Continuous
 62
     7
100
AcDbLine
 10
473.8138980721173
 20
335.9905255220514
 30
0.0
 11
473.8138980721173
 21
331.3380465099167
 31
0.0
  0
LINE
  5
6B
102
{ACAD_REACTORS
330
A4
102
}
330
47
100
AcDbEntity
  8
1
  6
Continuous
 62
     7
100
AcDbLine
 10
473.1472314054507
 20
331.3380465099166
 30
0.0
 11
473.1472314054507
 21
335.9905255220514
 31
0.0
  0
LINE
  5
6C
102
{ACAD_REACTORS
330
A5
102
}
330
47
100
AcDbEntity
  8
1
  6
Continuous
 62
     7
100
AcDbLine
 10
477.3194643884939
 20
336.9317257801563
 30
0.0
 11
476.1472314054507
 21
334.9013586952173
 31
0.0
  0
LINE
  5
6D
102
{ACAD_REACTORS
330
A5
102
}
330
47
100
AcDbEntity
  8
1
  6
Continuous
 62
     7
100
AcDbLine
 10
477.8138980721173
 20
330.3762944324858
 30
0.0
 11
477.8138980721173
 21
336.7992426739186
 31
0.0
  0
LINE
  5
6E
102
{ACAD_REACTORS
330
A5
102
}
330
47
100
AcDbEntity
  8
1
  6
Continuous
 62
     7
100
AcDbLine
 10
477.1472314054507
 20
333.568025361884
 30
0.0
 11
477.1472314054507
 21
330.3762944324858
 31
0.0
  0
LINE
  5
6F
102
{ACAD_REACTORS
330
A5
102
}
330
47
100
AcDbEntity
  8
1
  6
Continuous
 62
     7
100
AcDbLine
 10
475.1472314054507
 20
331.9156104345169
 30
0.0
 11
475.1472314054507
 21
333.568025361884
 31
0.0
  0
LINE
  5
70
102
{ACAD_REACTORS
330
A5
102
}
330
47
100
AcDbEntity
  8
1
  6
Continuous
 62
     7
100
AcDbLine
 10
474.4805647387839
 20
333.568025361884
 30
0.0
 11
474.4805647387839
 21
331.9156104345169
 31
0.0
  0
LINE
  5
71
102
{ACAD_REACTORS
330
A5
102
}
330
47
100
AcDbEntity
  8
1
  6
Continuous
 62
     7
100
AcDbLine
 10
474.9749984224074
 20
336.9317257801563
 30
0.0
 11
476.1472314054507
 21
334.9013586952173
 31
0.0
  0
LINE
  5
72
102
{ACAD_REACTORS
330
A5
102
}
330
47
100
AcDbEntity
  8
1
  6
Continuous
 62
     7
100
AcDbLine
 10
474.4805647387839
 20
333.568025361884
 30
0.0
 11
474.4805647387839
 21
336.7992426739186
 31
0.0
  0
LINE
  5
73
330
47
100
AcDbEntity
  8
1
  6
Continuous
 62
     7
100
AcDbLine
 10
476.1472314054507
 20
328.568025361884
 30
0.0
 11
467.7307961303091
 21
333.4236610975426
 31
0.0
  0
LINE
  5
74
330
47
100
AcDbEntity
  8
1
  6
Continuous
 62
     7
100
AcDbLine
 10
484.5636666805921
 20
333.4236610975426
 30
0.0
 11
476.1472314054507
 21
328.568025361884
 31
0.0
  0
LINE
  5
75
330
47
100
AcDbEntity
  8
1
  6
Continuous
 62
     7
100
AcDbLine
 10
476.1472314054507
 20
338.568025361884
 30
0.0
 11
484.5636666805921
 21
333.7123896262253
 31
0.0
  0
LINE
  5
76
330
47
100
AcDbEntity
  8
1
  6
Continuous
 62
     7
100
AcDbLine
 10
467.7307961303091
 20
333.7123896262253
 30
0.0
 11
476.1472314054507
 21
338.568025361884
 31
0.0
  0
LINE
  5
77
102
{ACAD_REACTORS
330
A5
102
}
330
47
100
AcDbEntity
  8
1
  6
Continuous
 62
     7
100
AcDbLine
 10
475.1472314054507
 20
335.3000761694528
 30
0.0
 11
475.1472314054507
 21
333.568025361884
 31
0.0
  0
LINE
  5
78
102
{ACAD_REACTORS
330
A5
102
}
330
47
100
AcDbEntity
  8
1
  6
Continuous
 62
     7
100
AcDbLine
 10
476.0028938381532
 20
333.818025361884
 30
0.0
 11
475.1472314054507
 21
335.3000761694528
 31
0.0
  0
LINE
  5
79
102
{ACAD_REACTORS
330
A5
102
}
330
47
100
AcDbEntity
  8
1
  6
Continuous
 62
     7
100
AcDbLine
 10
477.1472314054507
 20
335.3000761694528
 30
0.0
 11
476.2915689727481
 21
333.818025361884
 31
0.0
  0
LINE
  5
7A
102
{ACAD_REACTORS
330
A5
102
}
330
47
100
AcDbEntity
  8
1
  6
Continuous
 62
     7
100
AcDbLine
 10
477.1472314054507
 20
333.568025361884
 30
0.0
 11
477.1472314054507
 21
335.3000761694528
 31
0.0
  0
LINE
  5
7B
102
{ACAD_REACTORS
330
A2
102
}
330
47
100
AcDbEntity
  8
1
  6
Continuous
 62
     7
100
AcDbLine
 10
478.480564738784
 20
331.1455252017166
 30
0.0
 11
478.480564738784
 21
335.9905255220514
 31
0.0
  0
LINE
  5
7C
330
47
100
AcDbEntity
  8
1
  6
Continuous
 62
     7
100
AcDbLine
 10
305.470930716708
 20
613.0680253618841
 30
0.0
 11
305.470930716708
 21
326.0680253618839
 31
0.0
  0
LINE
  5
7D
330
47
100
AcDbEntity
  8
1
  6
Continuous
 62
     7
100
AcDbLine
 10
489.470930716708
 20
613.0680253618841
 30
0.0
 11
305.470930716708
 21
613.0680253618841
 31
0.0
  0
LINE
  5
7E
330
47
100
AcDbEntity
  8
1
  6
Continuous
 62
     7
100
AcDbLine
 10
489.470930716708
 20
326.0680253618839
 30
0.0
 11
489.470930716708
 21
613.0680253618841
 31
0.0
  0
LINE
  5
7F
330
47
100
AcDbEntity
  8
1
  6
Continuous
 62
     7
100
AcDbLine
 10
494.470930716708
 20
618.0680253618841
 30
0.0
 11
284.4709307167079
 21
618.0680253618841
 31
0.0
  0
LINE
  5
80
330
47
100
AcDbEntity
  8
1
  6
Continuous
 62
     7
100
AcDbLine
 10
284.4709307167079
 20
618.0680253618841
 30
0.0
 11
284.4709307167079
 21
321.068025361884
 31
0.0
  0
LINE
  5
81
330
47
100
AcDbEntity
  8
1
  6
Continuous
 62
     7
100
AcDbLine
 10
284.4709307167079
 20
321.068025361884
 30
0.0
 11
494.470930716708
 21
321.068025361884
 31
0.0
  0
LINE
  5
82
330
47
100
AcDbEntity
  8
1
  6
Continuous
 62
     7
100
AcDbLine
 10
494.470930716708
 20
321.068025361884
 30
0.0
 11
494.470930716708
 21
618.0680253618841
 31
0.0
  0
LINE
  5
83
330
47
100
AcDbEntity
  8
1
  6
Continuous
 62
     7
100
AcDbLine
 10
284.4709307167079
 20
469.5680253618838
 30
0.0
 11
299.4709307167079
 21
469.5680253618838
 31
0.0
  0
LINE
  5
84
330
47
100
AcDbEntity
  8
1
  6
Continuous
 62
     7
100
AcDbLine
 10
305.470930716708
 20
331.0680253618839
 30
0.0
 11
335.470930716708
 21
331.0680253618839
 31
0.0
  0
LINE
  5
85
330
47
100
AcDbEntity
  8
1
  6
Continuous
 62
     7
100
AcDbLine
 10
335.470930716708
 20
341.068025361884
 30
0.0
 11
335.470930716708
 21
326.068025361884
 31
0.0
  0
LINE
  5
86
330
47
100
AcDbEntity
  8
1
  6
Continuous
 62
     7
100
AcDbLine
 10
462.8235320941934
 20
341.068025361884
 30
0.0
 11
462.8235320941934
 21
326.068025361884
 31
0.0
  0
LINE
  5
87
330
47
100
AcDbEntity
  8
1
  6
Continuous
 62
     7
100
AcDbLine
 10
445.470930716708
 20
341.068025361884
 30
0.0
 11
445.470930716708
 21
326.068025361884
 31
0.0
  0
LINE
  5
88
330
47
100
AcDbEntity
  8
1
  6
Continuous
 62
     7
100
AcDbLine
 10
305.470930716708
 20
341.068025361884
 30
0.0
 11
305.470930716708
 21
326.0680253618839
 31
0.0
  0
LINE
  5
89
330
47
100
AcDbEntity
  8
1
  6
Continuous
 62
     7
100
AcDbLine
 10
305.470930716708
 20
336.0680253618839
 30
0.0
 11
335.470930716708
 21
336.0680253618839
 31
0.0
  0
ARC
  5
8A
102
{ACAD_REACTORS
330
A2
102
}
330
47
100
AcDbEntity
  8
1
  6
Continuous
 62
     7
100
AcDbCircle
 10
480.1472314054507
 20
331.9147559709472
 30
0.0
 40
0.3333333333333349
100
AcDbArc
 50
299.9816393688203
 51
119.9816393688458
  0
ARC
  5
8B
102
{ACAD_REACTORS
330
A2
102
}
330
47
100
AcDbEntity
  8
1
  6
Continuous
 62
     7
100
AcDbCircle
 10
480.1472314054507
 20
333.568025361884
 30
0.0
 40
0.3333333333333712
100
AcDbArc
 50
270.0
 51
90.0
  0
ARC
  5
8C
102
{ACAD_REACTORS
330
A2
102
}
330
47
100
AcDbEntity
  8
1
  6
Continuous
 62
     7
100
AcDbCircle
 10
480.1472314054507
 20
335.2212947528207
 30
0.0
 40
0.3333333333333709
100
AcDbArc
 50
240.0183606311493
 51
60.01836063115523
  0
ARC
  5
8D
102
{ACAD_REACTORS
330
A3
102
}
330
47
100
AcDbEntity
  8
1
  6
Continuous
 62
     7
100
AcDbCircle
 10
472.1472314054507
 20
331.9147559709472
 30
0.0
 40
0.3333333333334281
100
AcDbArc
 50
180.0
 51
0.0
  0
ARC
  5
8E
102
{ACAD_REACTORS
330
A3
102
}
330
47
100
AcDbEntity
  8
1
  6
Continuous
 62
     7
100
AcDbCircle
 10
472.1472314054507
 20
335.2212947528207
 30
0.0
 40
0.3333333333332007
100
AcDbArc
 50
0.0
 51
180.0
  0
ARC
  5
8F
102
{ACAD_REACTORS
330
A4
102
}
330
47
100
AcDbEntity
  8
1
  6
Continuous
 62
     7
100
AcDbCircle
 10
475.8138980721173
 20
329.7993713555627
 30
0.0
 40
0.3333333333333709
100
AcDbArc
 50
240.0183606311493
 51
60.01836063114937
  0
ARC
  5
90
102
{ACAD_REACTORS
330
A4
102
}
330
47
100
AcDbEntity
  8
1
  6
Continuous
 62
     7
100
AcDbCircle
 10
473.4805647387839
 20
335.9905255220514
 30
0.0
 40
0.3333333333333712
100
AcDbArc
 50
0.0
 51
180.0
  0
ARC
  5
91
102
{ACAD_REACTORS
330
A5
102
}
330
47
100
AcDbEntity
  8
1
  6
Continuous
 62
     7
100
AcDbCircle
 10
477.548931859642
 20
336.7992426739186
 30
0.0
 40
0.2649662124753149
100
AcDbArc
 50
0.0
 51
149.9999999999924
  0
ARC
  5
92
102
{ACAD_REACTORS
330
A5
102
}
330
47
100
AcDbEntity
  8
1
  6
Continuous
 62
     7
100
AcDbCircle
 10
477.480564738784
 20
330.3762944324858
 30
0.0
 40
0.3333333333332575
100
AcDbArc
 50
180.0
 51
0.0
  0
ARC
  5
93
102
{ACAD_REACTORS
330
A5
102
}
330
47
100
AcDbEntity
  8
1
  6
Continuous
 62
     7
100
AcDbCircle
 10
474.8138980721173
 20
331.9156104345169
 30
0.0
 40
0.3333333333333712
100
AcDbArc
 50
180.0
 51
0.0
  0
ARC
  5
94
102
{ACAD_REACTORS
330
A5
102
}
330
47
100
AcDbEntity
  8
1
  6
Continuous
 62
     7
100
AcDbCircle
 10
474.7455309512592
 20
336.7992426739186
 30
0.0
 40
0.2649662124753527
100
AcDbArc
 50
29.99999999999528
 51
180.0
  0
ARC
  5
95
102
{ACAD_REACTORS
330
A2
102
}
330
47
100
AcDbEntity
  8
1
  6
Continuous
 62
     7
100
AcDbCircle
 10
478.8138980721173
 20
331.1455252017166
 30
0.0
 40
0.3333333333333144
100
AcDbArc
 50
180.0
 51
299.9816393688506
  0
ARC
  5
96
102
{ACAD_REACTORS
330
A2
102
}
330
47
100
AcDbEntity
  8
1
  6
Continuous
 62
     7
100
AcDbCircle
 10
478.8138980721173
 20
335.9905255220514
 30
0.0
 40
0.3333333333333709
100
AcDbArc
 50
60.01836063114937
 51
180.0
  0
ARC
  5
97
330
47
100
AcDbEntity
  8
1
  6
Continuous
 62
     7
100
AcDbCircle
 10
484.4803796050106
 20
333.568025361884
 30
0.0
 40
0.1666666666665794
100
AcDbArc
 50
299.9816393688265
 51
60.01836063115393
  0
ARC
  5
98
330
47
100
AcDbEntity
  8
1
  6
Continuous
 62
     7
100
AcDbCircle
 10
467.8140832058908
 20
333.568025361884
 30
0.0
 40
0.1666666666665945
100
AcDbArc
 50
119.9816393689138
 51
240.0183606311058
  0
ARC
  5
99
102
{ACAD_REACTORS
330
A4
102
}
330
47
100
AcDbEntity
  8
1
  6
Continuous
 62
     7
100
AcDbCircle
 10
473.8138980721173
 20
331.3380465099167
 30
0.0
 40
0.6666666666665719
100
AcDbArc
 50
180.0000000000097
 51
240.0183606311578
  0
ARC
  5
9A
102
{ACAD_REACTORS
330
A5
102
}
330
47
100
AcDbEntity
  8
1
  6
Continuous
 62
     7
100
AcDbCircle
 10
476.1472314054507
 20
333.9013586952173
 30
0.0
 40
0.1666666666667365
100
AcDbArc
 50
209.9999999999786
 51
330.0000000000019
  0
MTEXT
  5
9C
330
47
100
AcDbEntity
  8
1
 62
     7
100
AcDbMText
 10
454.1472314054507
 20
337.32866478264
 30
0.0
 40
3.0
 41
0.0
 71
     5
 72
     1
  1
Scale
  7
CONVERTER_11
 73
     1
 44
1.32052821128451
  0
MTEXT
  5
9D
330
47
100
AcDbEntity
  8
1
 62
     7
100
AcDbMText
 10
306.470930716708
 20
328.5680253618839
 30
0.0
 40
3.0
 41
0.0
 71
     4
 72
     1
  1
Sign.
  7
CONVERTER_11
 73
     1
 44
1.32052821128451
  0
MTEXT
  5
9E
330
47
100
AcDbEntity
  8
1
 62
     7
100
AcDbMText
 10
306.470930716708
 20
333.5680253618839
 30
0.0
 40
3.0
 41
0.0
 71
     4
 72
     1
  1
Date
  7
CONVERTER_11
 73
     1
 44
1.32052821128451
  0
MTEXT
  5
9F
330
47
100
AcDbEntity
  8
1
 62
     7
100
AcDbMText
 10
300.4709307167079
 20
472.5680253618838
 30
0.0
 40
4.0
 41
0.0
 71
     5
 72
     1
  1
Diritti riservati      All rights reserved
  7
CONVERTER_11
 11
0.0
 21
1.0
 31
0.0
 73
     1
 44
1.32052821128451
  0
MTEXT
  5
A1
330
47
100
AcDbEntity
  8
1
 62
     7
100
AcDbMText
 10
320.470930716708
 20
338.568025361884
 30
0.0
 40
2.5
 41
0.0
 71
     5
 72
     1
  1
dimensions in mm
  7
CONVERTER_12
 73
     1
 44
0.60024009603842
  0
HATCH
  5
A2
330
47
100
AcDbEntity
  8
1
  6
Continuous
 62
     7
100
AcDbHatch
 10
0.0
 20
0.0
 30
0.0
210
0.0
220
0.0
230
1.0
  2
SOLID
 70
     1
 71
     1
 91
        1
 92
        1
 93
       14
 72
     2
 10
478.8138980721173
 20
335.9905255220514
 40
0.3333333333333709
 50
60.01836063114937
 51
180.0
 73
     1
 72
     1
 10
478.480564738784
 20
335.9905255220514
 11
478.480564738784
 21
331.1455252017166
 72
     2
 10
478.8138980721173
 20
331.1455252017166
 40
0.3333333333333144
 50
180.0
 51
299.9816393688506
 73
     1
 72
     1
 10
478.9804722232805
 20
330.8567966730337
 11
480.3138055566138
 21
331.6260274422643
 72
     2
 10
480.1472314054507
 20
331.9147559709472
 40
0.3333333333333349
 50
299.9816393688203
 51
479.9816393688458
 73
     1
 72
     1
 10
479.9806572542875
 20
332.2034844996302
 11
479.1472314054507
 21
331.7226618945319
 72
     1
 10
479.1472314054507
 20
331.7226618945319
 11
479.1472314054507
 21
333.2346920285506
 72
     1
 10
479.1472314054507
 20
333.2346920285506
 11
480.1472314054507
 21
333.2346920285506
 72
     2
 10
480.1472314054507
 20
333.568025361884
 40
0.3333333333333712
 50
270.0
 51
450.0
 73
     1
 72
     1
 10
480.1472314054507
 20
333.9013586952173
 11
479.1472314054507
 21
333.9013586952173
 72
     1
 10
479.1472314054507
 20
333.9013586952173
 11
479.1472314054507
 21
335.4133888292359
 72
     1
 10
479.1472314054507
 20
335.4133888292359
 11
479.9806572542875
 21
334.9325662241378
 72
     2
 10
480.1472314054507
 20
335.2212947528207
 40
0.3333333333333709
 50
240.0183606311493
 51
420.0183606311552
 73
     1
 72
     1
 10
480.3138055566138
 20
335.5100232815034
 11
478.9804722232805
 21
336.2792540507343
 97
       14
330
8C
330
63
330
62
330
61
330
8B
330
60
330
5F
330
5E
330
8A
330
5D
330
95
330
7B
330
96
330
64
 75
     0
 76
     1
 98
        1
 10
0.0
 20
0.0
  0
HATCH
  5
A3
330
47
100
AcDbEntity
  8
1
  6
Continuous
 62
     7
100
AcDbHatch
 10
0.0
 20
0.0
 30
0.0
210
0.0
220
0.0
230
1.0
  2
SOLID
 70
     1
 71
     1
 91
        1
 92
        1
 93
        5
 72
     2
 10
472.1472314054507
 20
335.2212947528207
 40
0.3333333333332007
 50
0.0
 51
180.0
 73
     1
 72
     1
 10
471.8138980721173
 20
335.2212947528207
 11
471.8138980721173
 21
331.9147559709472
 72
     2
 10
472.1472314054507
 20
331.9147559709472
 40
0.3333333333334281
 50
180.0
 51
360.0
 73
     1
 72
     1
 10
472.4805647387839
 20
331.9147559709472
 11
472.4805647387839
 21
332.1072772791473
 72
     1
 10
472.4805647387839
 20
332.1072772791473
 11
472.4805647387839
 21
335.2212947528207
 97
        5
330
8E
330
65
330
8D
330
66
330
67
 75
     0
 76
     1
 98
        1
 10
0.0
 20
0.0
  0
HATCH
  5
A4
330
47
100
AcDbEntity
  8
1
  6
Continuous
 62
     7
100
AcDbHatch
 10
0.0
 20
0.0
 30
0.0
210
0.0
220
0.0
230
1.0
  2
SOLID
 70
     1
 71
     1
 91
        1
 92
        1
 93
        7
 72
     2
 10
473.4805647387839
 20
335.9905255220514
 40
0.3333333333333712
 50
0.0
 51
180.0
 73
     1
 72
     1
 10
473.1472314054507
 20
335.9905255220514
 11
473.1472314054507
 21
331.3380465099166
 72
     2
 10
473.8138980721173
 20
331.3380465099167
 40
0.6666666666665719
 50
180.0000000000097
 51
240.0183606311578
 73
     1
 72
     1
 10
473.480749769791
 20
330.7605894525509
 11
475.6473239209541
 21
329.5106428268798
 72
     2
 10
475.8138980721173
 20
329.7993713555627
 40
0.3333333333333709
 50
240.0183606311493
 51
420.0183606311494
 73
     1
 72
     1
 10
475.9804722232805
 20
330.0880998842456
 11
473.8138980721173
 21
331.3380465099167
 72
     1
 10
473.8138980721173
 20
331.3380465099167
 11
473.8138980721173
 21
335.9905255220514
 97
        7
330
90
330
6B
330
99
330
68
330
8F
330
69
330
6A
 75
     0
 76
     1
 98
        1
 10
0.0
 20
0.0
  0
HATCH
  5
A5
330
47
100
AcDbEntity
  8
1
  6
Continuous
 62
     7
100
AcDbHatch
 10
0.0
 20
0.0
 30
0.0
210
0.0
220
0.0
230
1.0
  2
SOLID
 70
     1
 71
     1
 91
        1
 92
        1
 93
       16
 72
     2
 10
477.548931859642
 20
336.7992426739186
 40
0.2649662124753149
 50
210.0000000000076
 51
360.0
 73
     0
 72
     1
 10
477.8138980721173
 20
336.7992426739186
 11
477.8138980721173
 21
330.3762944324858
 72
     2
 10
477.480564738784
 20
330.3762944324858
 40
0.3333333333332575
 50
0.0
 51
180.0
 73
     0
 72
     1
 10
477.1472314054507
 20
330.3762944324858
 11
477.1472314054507
 21
333.568025361884
 72
     1
 10
477.1472314054507
 20
333.568025361884
 11
477.1472314054507
 21
335.3000761694528
 72
     1
 10
477.1472314054507
 20
335.3000761694528
 11
476.2915689727481
 21
333.818025361884
 72
     2
 10
476.1472314054507
 20
333.9013586952173
 40
0.1666666666667365
 50
29.99999999999813
 51
150.0000000000214
 73
     0
 72
     1
 10
476.0028938381532
 20
333.818025361884
 11
475.1472314054507
 21
335.3000761694528
 72
     1
 10
475.1472314054507
 20
335.3000761694528
 11
475.1472314054507
 21
333.568025361884
 72
     1
 10
475.1472314054507
 20
333.568025361884
 11
475.1472314054507
 21
331.9156104345169
 72
     2
 10
474.8138980721173
 20
331.9156104345169
 40
0.3333333333333712
 50
0.0
 51
180.0
 73
     0
 72
     1
 10
474.4805647387839
 20
331.9156104345169
 11
474.4805647387839
 21
333.568025361884
 72
     1
 10
474.4805647387839
 20
333.568025361884
 11
474.4805647387839
 21
336.7992426739186
 72
     2
 10
474.7455309512592
 20
336.7992426739186
 40
0.2649662124753527
 50
180.0
 51
330.0000000000047
 73
     0
 72
     1
 10
474.9749984224074
 20
336.9317257801563
 11
476.1472314054507
 21
334.9013586952173
 72
     1
 10
476.1472314054507
 20
334.9013586952173
 11
477.3194643884939
 21
336.9317257801563
 97
       16
330
71
330
94
330
72
330
70
330
93
330
6F
330
77
330
78
330
9A
330
79
330
7A
330
6E
330
92
330
6D
330
91
330
6C
 75
     0
 76
     1
 98
        1
 10
0.0
 20
0.0
  0
ENDBLK
  5
49
330
47
100
AcDbEntity
  8
0
100
AcDbBlockEnd
  0
BLOCK
  5
4C
330
4A
100
AcDbEntity
  8
0
100
AcDbBlockBegin
  2
A4
 70
     0
 10
385.420930716708
 20
239.218025361884
 30
0.0
  3
A4
  1

  0
INSERT
  5
4B
330
4A
100
AcDbEntity
  8
1
100
AcDbBlockReference
  2
_formato_A4
 10
385.420930716708
 20
239.218025361884
 30
0.0
 41
2.0
 42
2.0
 43
2.0
  0
ENDBLK
  5
4D
330
4A
100
AcDbEntity
  8
0
100
AcDbBlockEnd
  0
BLOCK
  5
235
330
22D
100
AcDbEntity
  8
0
100
AcDbBlockBegin
  2
*D3
 70
     1
 10
0.0
 20
0.0
 30
0.0
  3
*D3
  1

  0
LINE
  5
22E
330
22D
100
AcDbEntity
  8
1
  6
Continuous
 62
     2
100
AcDbLine
 10
211.845036675315
 20
700.2655015197635
 30
0.0
 11
211.845036675315
 21
445.2655015197687
 31
0.0
  0
LINE
  5
22F
330
22D
100
AcDbEntity
  8
1
  6
Continuous
 62
     2
100
AcDbLine
 10
175.6326277208184
 20
445.2655015197687
 30
0.0
 11
213.845036675315
 21
445.2655015197687
 31
0.0
  0
LINE
  5
230
330
22D
100
AcDbEntity
  8
1
  6
Continuous
 62
     2
100
AcDbLine
 10
175.6326277208184
 20
700.2655015197635
 30
0.0
 11
213.845036675315
 21
700.2655015197635
 31
0.0
  0
SOLID
  5
231
330
22D
100
AcDbEntity
  8
1
 62
     2
100
AcDbTrace
 10
212.6349516608394
 20
694.2655015197635
 30
0.0
 11
211.0551216897906
 21
694.2655015197635
 31
0.0
 12
211.845036675315
 22
700.2655015197635
 32
0.0
 13
211.845036675315
 23
700.2655015197635
 33
0.0
  0
SOLID
  5
232
330
22D
100
AcDbEntity
  8
1
 62
     2
100
AcDbTrace
 10
211.0551216897906
 20
451.2655015197687
 30
0.0
 11
212.6349516608394
 21
451.2655015197687
 31
0.0
 12
211.845036675315
 22
445.2655015197687
 32
0.0
 13
211.845036675315
 23
445.2655015197687
 33
0.0
  0
MTEXT
  5
234
330
22D
100
AcDbEntity
  8
1
 62
     4
100
AcDbMText
 10
207.845036675315
 20
565.565501519766
 30
0.0
 40
6.0
 41
0.0
 71
     7
 72
     1
  1
255
  7
CONVERTER_13
 11
0.0
 21
1.0
 31
0.0
 73
     1
 44
0.60024009603842
  0
ENDBLK
  5
236
330
22D
100
AcDbEntity
  8
0
100
AcDbBlockEnd
  0
BLOCK
  5
241
330
239
100
AcDbEntity
  8
0
100
AcDbBlockBegin
  2
*D4
 70
     1
 10
0.0
 20
0.0
 30
0.0
  3
*D4
  1

  0
LINE
  5
23A
330
239
100
AcDbEntity
  8
1
  6
Continuous
 62
     2
100
AcDbLine
 10
248.9802289956436
 20
415.43475082622
 30
0.0
 11
270.8802289956436
 21
415.43475082622
 31
0.0
  0
LINE
  5
23B
330
239
100
AcDbEntity
  8
1
  6
Continuous
 62
     2
100
AcDbLine
 10
270.8802289956436
 20
415.43475082622
 30
0.0
 11
295.3802289956437
 21
415.43475082622
 31
0.0
  0
LINE
  5
23C
330
239
100
AcDbEntity
  8
1
  6
Continuous
 62
     2
100
AcDbLine
 10
270.8802289956436
 20
444.2655015198003
 30
0.0
 11
270.8802289956436
 21
413.43475082622
 31
0.0
  0
LINE
  5
23D
330
239
100
AcDbEntity
  8
1
  6
Continuous
 62
     2
100
AcDbLine
 10
295.3802289956437
 20
453.7655015198037
 30
0.0
 11
295.3802289956437
 21
413.43475082622
 31
0.0
  0
SOLID
  5
23E
330
239
100
AcDbEntity
  8
1
 62
     2
100
AcDbTrace
 10
276.8802289956436
 20
416.2246658117444
 30
0.0
 11
276.8802289956436
 21
414.6448358406956
 31
0.0
 12
270.8802289956436
 22
415.43475082622
 32
0.0
 13
270.8802289956436
 23
415.43475082622
 33
0.0
  0
SOLID
  5
23F
330
239
100
AcDbEntity
  8
1
 62
     2
100
AcDbTrace
 10
289.3802289956437
 20
414.6448358406956
 30
0.0
 11
289.3802289956437
 21
416.2246658117444
 31
0.0
 12
295.3802289956437
 22
415.43475082622
 32
0.0
 13
295.3802289956437
 23
415.43475082622
 33
0.0
  0
MTEXT
  5
240
330
239
100
AcDbEntity
  8
1
 62
     4
100
AcDbMText
 10
248.9802289956436
 20
420.03475082622
 30
0.0
 40
6.0
 41
0.0
 71
     7
 72
     1
  1
24,5
  7
CONVERTER_13
 11
0.9999999999970619
 21
2.424068405545306E-6
 31
0.0
 73
     1
 44
0.60024009603842
  0
ENDBLK
  5
242
330
239
100
AcDbEntity
  8
0
100
AcDbBlockEnd
  0
BLOCK
  5
24C
330
245
100
AcDbEntity
  8
0
100
AcDbBlockBegin
  2
*D5
 70
     1
 10
0.0
 20
0.0
 30
0.0
  3
*D5
  1

  0
LINE
  5
246
330
245
100
AcDbEntity
  8
1
  6
Continuous
 62
     2
100
AcDbLine
 10
67.63022899567615
 20
415.43475082622
 30
0.0
 11
181.6302289956473
 21
415.43475082622
 31
0.0
  0
LINE
  5
247
330
245
100
AcDbEntity
  8
1
  6
Continuous
 62
     2
100
AcDbLine
 10
181.6302289956473
 20
451.2631027945976
 30
0.0
 11
181.6302289956473
 21
413.43475082622
 31
0.0
  0
LINE
  5
248
330
245
100
AcDbEntity
  8
1
  6
Continuous
 62
     2
100
AcDbLine
 10
67.63022899567615
 20
451.2631027945976
 30
0.0
 11
67.63022899567615
 21
413.43475082622
 31
0.0
  0
SOLID
  5
249
330
245
100
AcDbEntity
  8
1
 62
     2
100
AcDbTrace
 10
73.63022899567615
 20
416.2246658117444
 30
0.0
 11
73.63022899567615
 21
414.6448358406956
 31
0.0
 12
67.63022899567615
 22
415.43475082622
 32
0.0
 13
67.63022899567615
 23
415.43475082622
 33
0.0
  0
SOLID
  5
24A
330
245
100
AcDbEntity
  8
1
 62
     2
100
AcDbTrace
 10
175.6302289956473
 20
414.6448358406956
 30
0.0
 11
175.6302289956473
 21
416.2246658117444
 31
0.0
 12
181.6302289956473
 22
415.43475082622
 32
0.0
 13
181.6302289956473
 23
415.43475082622
 33
0.0
  0
MTEXT
  5
24B
330
245
100
AcDbEntity
  8
1
 62
     4
100
AcDbMText
 10
119.2302289956617
 20
419.43475082622
 30
0.0
 40
6.0
 41
0.0
 71
     7
 72
     1
  1
114
  7
CONVERTER_13
 11
0.9999999999970619
 21
2.424068405545306E-6
 31
0.0
 73
     1
 44
0.60024009603842
  0
ENDBLK
  5
24D
330
245
100
AcDbEntity
  8
0
100
AcDbBlockEnd
  0
ENDSEC
  0
SECTION
  2
ENTITIES
  0
INSERT
  5
4E
330
1F
100
AcDbEntity
  8
0
100
AcDbBlockReference
  2
A4
 10
385.420930716708
 20
239.218025361884
 30
0.0
  0
LINE
  5
A6
330
1F
100
AcDbEntity
  8
0
  6
Continuous
 62
     2
100
AcDbLine
 10
158.8525344792559
 20
453.8527682110698
 30
0.0
 11
90.40792351204516
 21
453.8527682110698
 31
0.0
  0
LINE
  5
A7
330
1F
100
AcDbEntity
  8
0
  6
Continuous
 62
     7
100
AcDbLine
 10
96.65522703994945
 20
687.505453562966
 30
0.0
 11
96.65522703994945
 21
685.025549476561
 31
0.0
  0
LINE
  5
A8
330
1F
100
AcDbEntity
  8
0
  6
Continuous
 62
     7
100
AcDbLine
 10
97.15522703994945
 20
684.593017380788
 30
0.0
 11
97.15522703994945
 21
688.082376639889
 31
0.0
  0
LINE
  5
A9
330
1F
100
AcDbEntity
  8
0
  6
Continuous
 62
     7
100
AcDbLine
 10
97.65522703994945
 20
688.082376639889
 30
0.0
 11
97.65522703994945
 21
684.593017380788
 31
0.0
  0
LINE
  5
AA
330
1F
100
AcDbEntity
  8
0
  6
Continuous
 62
     7
100
AcDbLine
 10
99.29697386447644
 20
686.4530015197635
 30
0.0
 11
98.65522703994945
 21
687.5645396254403
 31
0.0
  0
LINE
  5
AB
330
1F
100
AcDbEntity
  8
0
  6
Continuous
 62
     7
100
AcDbLine
 10
93.09290058359348
 20
686.3737747180198
 30
0.0
 11
99.40522703994947
 21
690.0155015197635
 31
0.0
  0
LINE
  5
AC
330
1F
100
AcDbEntity
  8
0
  6
Continuous
 62
     7
100
AcDbLine
 10
98.52605230266708
 20
688.7882768334676
 30
0.0
 11
99.40522703994944
 21
687.2655015197635
 31
0.0
  0
LINE
  5
AD
330
1F
100
AcDbEntity
  8
0
  6
Continuous
 62
     7
100
AcDbLine
 10
101.6552270399495
 20
686.5155015197635
 30
0.0
 11
102.4052270399495
 21
686.5155015197635
 31
0.0
  0
LINE
  5
AE
330
1F
100
AcDbEntity
  8
0
  6
Continuous
 62
     7
100
AcDbLine
 10
102.2802964265771
 20
687.288907166454
 30
0.0
 11
101.6552270399495
 21
687.6495241202776
 31
0.0
  0
LINE
  5
AF
330
1F
100
AcDbEntity
  8
0
  6
Continuous
 62
     7
100
AcDbLine
 10
101.530157653322
 20
688.2989230364014
 30
0.0
 11
102.5301576533218
 21
687.721999959478
 31
0.0
  0
LINE
  5
B0
330
1F
100
AcDbEntity
  8
0
  6
Continuous
 62
     7
100
AcDbLine
 10
99.40522703994945
 20
690.246398920068
 30
0.0
 11
105.8174979870035
 21
686.5470118352291
 31
0.0
  0
LINE
  5
B1
330
1F
100
AcDbEntity
  8
0
  6
Continuous
 62
     7
100
AcDbLine
 10
101.6552270399495
 20
687.6495241202776
 30
0.0
 11
101.6552270399495
 21
686.5155015197635
 31
0.0
  0
LINE
  5
B2
330
1F
100
AcDbEntity
  8
0
  6
Continuous
 62
     7
100
AcDbLine
 10
100.1552270399495
 20
687.5645396254403
 30
0.0
 11
99.51348021542248
 21
686.4530015197635
 31
0.0
  0
LINE
  5
B3
330
1F
100
AcDbEntity
  8
0
  6
Continuous
 62
     7
100
AcDbLine
 10
99.40522703994947
 20
690.0155015197635
 30
0.0
 11
105.7175534963057
 21
686.3737747180196
 31
0.0
  0
LINE
  5
B4
330
1F
100
AcDbEntity
  8
0
  6
Continuous
 62
     7
100
AcDbLine
 10
100.284401777232
 20
688.7882768334675
 30
0.0
 11
99.40522703994944
 21
687.2655015197635
 31
0.0
  0
LINE
  5
B5
330
1F
100
AcDbEntity
  8
0
  6
Continuous
 62
     7
100
AcDbLine
 10
92.99295609289538
 20
686.5470118352293
 30
0.0
 11
99.40522703994945
 21
690.246398920068
 31
0.0
  0
LINE
  5
B6
330
1F
100
AcDbEntity
  8
0
  6
Continuous
 62
     7
100
AcDbLine
 10
98.15522703994976
 20
688.6889145037896
 30
0.0
 11
98.15522703994945
 21
685.0261903242383
 31
0.0
  0
LINE
  5
B7
330
1F
100
AcDbEntity
  8
0
  6
Continuous
 62
     7
100
AcDbLine
 10
100.6552270399495
 20
683.871703322715
 30
0.0
 11
100.6552270399495
 21
688.6889145037896
 31
0.0
  0
LINE
  5
B8
330
1F
100
AcDbEntity
  8
0
  6
Continuous
 62
     7
100
AcDbLine
 10
100.1552270399495
 20
687.5645396254403
 30
0.0
 11
100.1552270399495
 21
683.8717033227149
 31
0.0
  0
LINE
  5
B9
330
1F
100
AcDbEntity
  8
0
  6
Continuous
 62
     7
100
AcDbLine
 10
98.65522703994945
 20
687.5645396254403
 30
0.0
 11
98.65522703994945
 21
685.0261903242383
 31
0.0
  0
LINE
  5
BA
330
1F
100
AcDbEntity
  8
0
  6
Continuous
 62
     7
100
AcDbLine
 10
101.1552270399495
 20
684.4486263996381
 30
0.0
 11
101.1552270399492
 21
688.082376639889
 31
0.0
  0
LINE
  5
BB
330
1F
100
AcDbEntity
  8
0
  6
Continuous
 62
     7
100
AcDbLine
 10
97.65522703994945
 20
684.593017380788
 30
0.0
 11
99.28015765332206
 21
683.655557411535
 31
0.0
  0
LINE
  5
BC
330
1F
100
AcDbEntity
  8
0
  6
Continuous
 62
     7
100
AcDbLine
 10
99.03029642657707
 20
683.2224646185105
 30
0.0
 11
97.40536581320461
 21
684.1599245877637
 31
0.0
  0
LINE
  5
BD
330
1F
100
AcDbEntity
  8
0
  6
Continuous
 62
     7
100
AcDbLine
 10
99.40522703994945
 20
682.2846041194588
 30
0.0
 11
92.99295609289538
 21
685.9839912042975
 31
0.0
  0
LINE
  5
BE
330
1F
100
AcDbEntity
  8
0
  6
Continuous
 62
     7
100
AcDbLine
 10
99.40522703994945
 20
682.5155015197635
 30
0.0
 11
93.09290058359343
 21
686.1572283215075
 31
0.0
  0
LINE
  5
BF
330
1F
100
AcDbEntity
  8
0
  6
Continuous
 62
     7
100
AcDbLine
 10
110.9300881896195
 20
688.2655015197635
 30
0.0
 11
107.8800881896195
 21
688.2655015197635
 31
0.0
  0
LINE
  5
C0
330
1F
100
AcDbEntity
  8
0
  6
Continuous
 62
     7
100
AcDbLine
 10
102.4052270399495
 20
686.0155015197635
 30
0.0
 11
101.6552270399495
 21
686.0155015197635
 31
0.0
  0
LINE
  5
C1
330
1F
100
AcDbEntity
  8
0
  6
Continuous
 62
     7
100
AcDbLine
 10
101.6552270399495
 20
684.8814789192497
 30
0.0
 11
102.2802964265772
 21
685.2420958730729
 31
0.0
  0
LINE
  5
C2
330
1F
100
AcDbEntity
  8
0
  6
Continuous
 62
     7
100
AcDbLine
 10
102.530157653322
 20
684.809003080049
 30
0.0
 11
101.530157653322
 21
684.2320800031259
 31
0.0
  0
LINE
  5
C3
330
1F
100
AcDbEntity
  8
0
  6
Continuous
 62
     7
100
AcDbLine
 10
105.8174979870036
 20
685.9839912042978
 30
0.0
 11
99.40522703994945
 21
682.2846041194588
 31
0.0
  0
LINE
  5
C4
330
1F
100
AcDbEntity
  8
0
  6
Continuous
 62
     7
100
AcDbLine
 10
101.6552270399495
 20
686.0155015197635
 30
0.0
 11
101.6552270399495
 21
684.8814789192497
 31
0.0
  0
LINE
  5
C5
330
1F
100
AcDbEntity
  8
0
  6
Continuous
 62
     7
100
AcDbLine
 10
105.7175534963057
 20
686.1572283215075
 30
0.0
 11
99.40522703994945
 21
682.5155015197635
 31
0.0
  0
LINE
  5
C6
330
1F
100
AcDbEntity
  8
0
  6
Continuous
 62
     7
100
AcDbLine
 10
96.15522703994945
 20
685.025549476561
 30
0.0
 11
96.15522703994945
 21
687.505453562966
 31
0.0
  0
LINE
  5
C7
330
1F
100
AcDbEntity
  8
0
  6
Continuous
 62
     7
100
AcDbLine
 10
156.4302289956606
 20
688.7655015197635
 30
0.0
 11
156.1802289956606
 21
688.7655015197635
 31
0.0
  0
LINE
  5
C8
330
1F
100
AcDbEntity
  8
0
  6
Continuous
 62
     7
100
AcDbLine
 10
152.1802289956606
 20
688.7655015197635
 30
0.0
 11
151.9302289956604
 21
688.7655015197635
 31
0.0
  0
LINE
  5
C9
330
1F
100
AcDbEntity
  8
0
  6
Continuous
 62
     7
100
AcDbLine
 10
142.4308237482711
 20
687.6655015197634
 30
0.0
 11
142.280823748271
 21
687.8655015197635
 31
0.0
  0
LINE
  5
CA
330
1F
100
AcDbEntity
  8
0
  6
Continuous
 62
     7
100
AcDbLine
 10
155.9302289956606
 20
686.6405015197635
 30
0.0
 11
155.9302289956606
 21
685.8905015197635
 31
0.0
  0
LINE
  5
CB
330
1F
100
AcDbEntity
  8
0
  6
Continuous
 62
     7
100
AcDbLine
 10
154.4708797042633
 20
686.6405015197635
 30
0.0
 11
155.9302289956606
 21
686.6405015197635
 31
0.0
  0
LINE
  5
CC
330
1F
100
AcDbEntity
  8
0
  6
Continuous
 62
     7
100
AcDbLine
 10
156.1802289956606
 20
684.5155015197635
 30
0.0
 11
156.4302289956606
 21
684.5155015197635
 31
0.0
  0
LINE
  5
CD
330
1F
100
AcDbEntity
  8
0
  6
Continuous
 62
     7
100
AcDbLine
 10
155.9302289956606
 20
685.8905015197635
 30
0.0
 11
154.4708797042633
 21
685.8905015197635
 31
0.0
  0
LINE
  5
CE
330
1F
100
AcDbEntity
  8
0
  6
Continuous
 62
     7
100
AcDbLine
 10
156.4302289956606
 20
684.5155015197635
 30
0.0
 11
156.4302289956606
 21
683.7655015197635
 31
0.0
  0
LINE
  5
CF
330
1F
100
AcDbEntity
  8
0
  6
Continuous
 62
     7
100
AcDbLine
 10
143.930823748271
 20
684.2655015197635
 30
0.0
 11
144.0308237482711
 21
685.0655015197635
 31
0.0
  0
LINE
  5
D0
330
1F
100
AcDbEntity
  8
0
  6
Continuous
 62
     7
100
AcDbLine
 10
144.630823748271
 20
685.0155015197635
 30
0.0
 11
144.5308237482711
 21
684.2655015197635
 31
0.0
  0
LINE
  5
D1
330
1F
100
AcDbEntity
  8
0
  6
Continuous
 62
     7
100
AcDbLine
 10
145.4308237482711
 20
686.9655015197635
 30
0.0
 11
145.0308237482711
 21
686.2155015197635
 31
0.0
  0
LINE
  5
D2
330
1F
100
AcDbEntity
  8
0
  6
Continuous
 62
     7
100
AcDbLine
 10
145.0308237482711
 20
686.2155015197635
 30
0.0
 11
144.7808237482711
 21
685.6155015197635
 31
0.0
  0
LINE
  5
D3
330
1F
100
AcDbEntity
  8
0
  6
Continuous
 62
     7
100
AcDbLine
 10
142.1308237482712
 20
684.5155015197635
 30
0.0
 11
142.2808237482711
 21
684.6655015197634
 31
0.0
  0
LINE
  5
D4
330
1F
100
AcDbEntity
  8
0
  6
Continuous
 62
     7
100
AcDbLine
 10
140.430823748271
 20
684.6655015197634
 30
0.0
 11
140.5808237482711
 21
684.5155015197635
 31
0.0
  0
LINE
  5
D5
330
1F
100
AcDbEntity
  8
0
  6
Continuous
 62
     7
100
AcDbLine
 10
141.4808237482713
 20
684.7655015197635
 30
0.0
 11
141.2308237482712
 21
684.7655015197633
 31
0.0
  0
LINE
  5
D6
330
1F
100
AcDbEntity
  8
0
  6
Continuous
 62
     7
100
AcDbLine
 10
141.2308237482712
 20
684.7655015197633
 30
0.0
 11
140.9808237482712
 21
684.8655015197634
 31
0.0
  0
LINE
  5
D7
330
1F
100
AcDbEntity
  8
0
  6
Continuous
 62
     7
100
AcDbLine
 10
141.7308237482711
 20
684.8655015197634
 30
0.0
 11
141.4808237482713
 21
684.7655015197635
 31
0.0
  0
LINE
  5
D8
330
1F
100
AcDbEntity
  8
0
  6
Continuous
 62
     7
100
AcDbLine
 10
142.2808237482711
 20
684.6655015197634
 30
0.0
 11
142.430823748271
 21
684.8655015197634
 31
0.0
  0
LINE
  5
D9
330
1F
100
AcDbEntity
  8
0
  6
Continuous
 62
     7
100
AcDbLine
 10
140.280823748271
 20
684.8655015197634
 30
0.0
 11
140.430823748271
 21
684.6655015197634
 31
0.0
  0
LINE
  5
DA
330
1F
100
AcDbEntity
  8
0
  6
Continuous
 62
     7
100
AcDbLine
 10
144.0308237482711
 20
685.0655015197635
 30
0.0
 11
144.280823748271
 21
685.8155015197635
 31
0.0
  0
LINE
  5
DB
330
1F
100
AcDbEntity
  8
0
  6
Continuous
 62
     7
100
AcDbLine
 10
144.280823748271
 20
685.8155015197635
 30
0.0
 11
144.4808237482712
 21
686.2655015197635
 31
0.0
  0
LINE
  5
DC
330
1F
100
AcDbEntity
  8
0
  6
Continuous
 62
     7
100
AcDbLine
 10
144.4808237482712
 20
686.2655015197635
 30
0.0
 11
144.7808237482711
 21
686.8655015197635
 31
0.0
  0
LINE
  5
DD
330
1F
100
AcDbEntity
  8
0
  6
Continuous
 62
     7
100
AcDbLine
 10
144.7808237482711
 20
685.6155015197635
 30
0.0
 11
144.630823748271
 21
685.0155015197635
 31
0.0
  0
LINE
  5
DE
330
1F
100
AcDbEntity
  8
0
  6
Continuous
 62
     7
100
AcDbLine
 10
145.4308237482711
 20
687.7655015197635
 30
0.0
 11
143.4308237482711
 21
687.7655015197635
 31
0.0
  0
LINE
  5
DF
330
1F
100
AcDbEntity
  8
0
  6
Continuous
 62
     7
100
AcDbLine
 10
142.5808237482711
 20
687.2155015197634
 30
0.0
 11
142.530823748271
 21
687.4655015197634
 31
0.0
  0
LINE
  5
E0
330
1F
100
AcDbEntity
  8
0
  6
Continuous
 62
     7
100
AcDbLine
 10
142.630823748271
 20
685.3655015197634
 30
0.0
 11
142.6308237482711
 21
685.7655015197635
 31
0.0
  0
LINE
  5
E1
330
1F
100
AcDbEntity
  8
0
  6
Continuous
 62
     7
100
AcDbLine
 10
142.5808237482711
 20
687.1155015197634
 30
0.0
 11
142.5808237482711
 21
687.2155015197634
 31
0.0
  0
LINE
  5
E2
330
1F
100
AcDbEntity
  8
0
  6
Continuous
 62
     7
100
AcDbLine
 10
142.6308237482711
 20
685.7655015197635
 30
0.0
 11
142.530823748271
 21
686.0655015197633
 31
0.0
  0
LINE
  5
E3
330
1F
100
AcDbEntity
  8
0
  6
Continuous
 62
     7
100
AcDbLine
 10
142.5308237482711
 20
685.0655015197635
 30
0.0
 11
142.630823748271
 21
685.3655015197634
 31
0.0
  0
LINE
  5
E4
330
1F
100
AcDbEntity
  8
0
  6
Continuous
 62
     7
100
AcDbLine
 10
142.030823748271
 20
685.9655015197635
 30
0.0
 11
142.1308237482711
 21
685.7155015197634
 31
0.0
  0
LINE
  5
E5
330
1F
100
AcDbEntity
  8
0
  6
Continuous
 62
     7
100
AcDbLine
 10
138.7308237482711
 20
686.0655015197633
 30
0.0
 11
138.9308237482711
 21
686.2655015197635
 31
0.0
  0
LINE
  5
E6
330
1F
100
AcDbEntity
  8
0
  6
Continuous
 62
     7
100
AcDbLine
 10
140.6808237482711
 20
685.9655015197635
 30
0.0
 11
140.7808237482711
 21
686.1155015197635
 31
0.0
  0
LINE
  5
E7
330
1F
100
AcDbEntity
  8
0
  6
Continuous
 62
     7
100
AcDbLine
 10
142.1308237482711
 20
685.7155015197634
 30
0.0
 11
142.1308237482711
 21
685.4155015197634
 31
0.0
  0
LINE
  5
E8
330
1F
100
AcDbEntity
  8
0
  6
Continuous
 62
     7
100
AcDbLine
 10
142.1308237482711
 20
685.4155015197634
 30
0.0
 11
142.030823748271
 21
685.1655015197634
 31
0.0
  0
LINE
  5
E9
330
1F
100
AcDbEntity
  8
0
  6
Continuous
 62
     7
100
AcDbLine
 10
138.7308237482711
 20
686.0655015197633
 30
0.0
 11
138.4308237482711
 21
685.9155015197634
 31
0.0
  0
LINE
  5
EA
330
1F
100
AcDbEntity
  8
0
  6
Continuous
 62
     7
100
AcDbLine
 10
142.530823748271
 20
687.4655015197634
 30
0.0
 11
142.4308237482711
 21
687.6655015197634
 31
0.0
  0
LINE
  5
EB
330
1F
100
AcDbEntity
  8
0
  6
Continuous
 62
     7
100
AcDbLine
 10
141.4808237482711
 20
686.3655015197634
 30
0.0
 11
141.7308237482712
 21
686.2655015197633
 31
0.0
  0
LINE
  5
EC
330
1F
100
AcDbEntity
  8
0
  6
Continuous
 62
     7
100
AcDbLine
 10
140.9808237482712
 20
686.2655015197635
 30
0.0
 11
140.7808237482711
 21
686.1155015197635
 31
0.0
  0
LINE
  5
ED
330
1F
100
AcDbEntity
  8
0
  6
Continuous
 62
     7
100
AcDbLine
 10
141.7308237482712
 20
686.2655015197633
 30
0.0
 11
141.9308237482711
 21
686.1155015197635
 31
0.0
  0
LINE
  5
EE
330
1F
100
AcDbEntity
  8
0
  6
Continuous
 62
     7
100
AcDbLine
 10
139.9808237482711
 20
686.4655015197634
 30
0.0
 11
139.9808237482711
 21
686.0655015197633
 31
0.0
  0
LINE
  5
EF
330
1F
100
AcDbEntity
  8
0
  6
Continuous
 62
     7
100
AcDbLine
 10
138.0308237482711
 20
685.8655015197634
 30
0.0
 11
138.4308237482711
 21
685.9155015197634
 31
0.0
  0
LINE
  5
F0
330
1F
100
AcDbEntity
  8
0
  6
Continuous
 62
     7
100
AcDbLine
 10
136.8308237482711
 20
685.8655015197634
 30
0.0
 11
138.0308237482711
 21
685.8655015197634
 31
0.0
  0
LINE
  5
F1
330
1F
100
AcDbEntity
  8
0
  6
Continuous
 62
     7
100
AcDbLine
 10
140.030823748271
 20
685.6155015197634
 30
0.0
 11
140.0808237482712
 21
685.3155015197635
 31
0.0
  0
LINE
  5
F2
330
1F
100
AcDbEntity
  8
0
  6
Continuous
 62
     7
100
AcDbLine
 10
139.9808237482711
 20
686.0655015197633
 30
0.0
 11
140.030823748271
 21
685.6155015197634
 31
0.0
  0
LINE
  5
F3
330
1F
100
AcDbEntity
  8
0
  6
Continuous
 62
     7
100
AcDbLine
 10
140.0808237482712
 20
685.3155015197635
 30
0.0
 11
140.1808237482711
 21
685.0655015197635
 31
0.0
  0
LINE
  5
F4
330
1F
100
AcDbEntity
  8
0
  6
Continuous
 62
     7
100
AcDbLine
 10
140.5808237482711
 20
685.7155015197634
 30
0.0
 11
140.6808237482711
 21
685.9655015197635
 31
0.0
  0
LINE
  5
F5
330
1F
100
AcDbEntity
  8
0
  6
Continuous
 62
     7
100
AcDbLine
 10
140.7808237482711
 20
685.0155015197633
 30
0.0
 11
140.680823748271
 21
685.1655015197634
 31
0.0
  0
LINE
  5
F6
330
1F
100
AcDbEntity
  8
0
  6
Continuous
 62
     7
100
AcDbLine
 10
140.5808237482711
 20
685.7155015197634
 30
0.0
 11
140.5808237482711
 21
685.4155015197634
 31
0.0
  0
LINE
  5
F7
330
1F
100
AcDbEntity
  8
0
  6
Continuous
 62
     7
100
AcDbLine
 10
140.1808237482711
 20
685.0655015197635
 30
0.0
 11
140.280823748271
 21
684.8655015197634
 31
0.0
  0
LINE
  5
F8
330
1F
100
AcDbEntity
  8
0
  6
Continuous
 62
     7
100
AcDbLine
 10
140.680823748271
 20
685.1655015197634
 30
0.0
 11
140.5808237482711
 21
685.4155015197634
 31
0.0
  0
LINE
  5
F9
330
1F
100
AcDbEntity
  8
0
  6
Continuous
 62
     7
100
AcDbLine
 10
141.9308237482711
 20
686.1155015197635
 30
0.0
 11
142.030823748271
 21
685.9655015197635
 31
0.0
  0
LINE
  5
FA
330
1F
100
AcDbEntity
  8
0
  6
Continuous
 62
     7
100
AcDbLine
 10
142.030823748271
 20
685.1655015197634
 30
0.0
 11
141.9308237482712
 21
685.0155015197635
 31
0.0
  0
LINE
  5
FB
330
1F
100
AcDbEntity
  8
0
  6
Continuous
 62
     7
100
AcDbLine
 10
138.5808237482711
 20
686.6655015197634
 30
0.0
 11
138.4308237482712
 21
686.5155015197635
 31
0.0
  0
LINE
  5
FC
330
1F
100
AcDbEntity
  8
0
  6
Continuous
 62
     7
100
AcDbLine
 10
142.030823748271
 20
687.3655015197636
 30
0.0
 11
142.0808237482711
 21
687.1155015197635
 31
0.0
  0
LINE
  5
FD
330
1F
100
AcDbEntity
  8
0
  6
Continuous
 62
     7
100
AcDbLine
 10
141.7308237482712
 20
687.6655015197634
 30
0.0
 11
141.9308237482711
 21
687.5155015197636
 31
0.0
  0
LINE
  5
FE
330
1F
100
AcDbEntity
  8
0
  6
Continuous
 62
     7
100
AcDbLine
 10
138.680823748271
 20
687.2155015197635
 30
0.0
 11
138.6808237482711
 21
686.9155015197634
 31
0.0
  0
LINE
  5
FF
330
1F
100
AcDbEntity
  8
0
  6
Continuous
 62
     7
100
AcDbLine
 10
139.1808237482711
 20
686.9155015197634
 30
0.0
 11
139.1808237482711
 21
687.2155015197634
 31
0.0
  0
LINE
  5
100
330
1F
100
AcDbEntity
  8
0
  6
Continuous
 62
     7
100
AcDbLine
 10
140.7808237482711
 20
687.5155015197635
 30
0.0
 11
140.9808237482712
 21
687.6655015197636
 31
0.0
  0
LINE
  5
101
330
1F
100
AcDbEntity
  8
0
  6
Continuous
 62
     7
100
AcDbLine
 10
140.6808237482711
 20
687.3655015197635
 30
0.0
 11
140.7808237482711
 21
687.5155015197635
 31
0.0
  0
LINE
  5
102
330
1F
100
AcDbEntity
  8
0
  6
Continuous
 62
     7
100
AcDbLine
 10
140.0808237482711
 20
687.2155015197635
 30
0.0
 11
140.030823748271
 21
686.9155015197634
 31
0.0
  0
LINE
  5
103
330
1F
100
AcDbEntity
  8
0
  6
Continuous
 62
     7
100
AcDbLine
 10
138.680823748271
 20
687.2155015197635
 30
0.0
 11
138.5808237482712
 21
687.4655015197634
 31
0.0
  0
LINE
  5
104
330
1F
100
AcDbEntity
  8
0
  6
Continuous
 62
     7
100
AcDbLine
 10
136.8308237482711
 20
687.7655015197635
 30
0.0
 11
137.8808237482711
 21
687.7655015197635
 31
0.0
  0
LINE
  5
105
330
1F
100
AcDbEntity
  8
0
  6
Continuous
 62
     7
100
AcDbLine
 10
109.6800881896195
 20
687.7655015197635
 30
0.0
 11
110.9300881896195
 21
687.7655015197635
 31
0.0
  0
LINE
  5
106
330
1F
100
AcDbEntity
  8
0
  6
Continuous
 62
     7
100
AcDbLine
 10
138.1808237482711
 20
687.7155015197635
 30
0.0
 11
138.4308237482712
 21
687.6155015197633
 31
0.0
  0
LINE
  5
107
330
1F
100
AcDbEntity
  8
0
  6
Continuous
 62
     7
100
AcDbLine
 10
140.2808237482711
 20
687.6655015197634
 30
0.0
 11
140.1808237482711
 21
687.4655015197635
 31
0.0
  0
LINE
  5
108
330
1F
100
AcDbEntity
  8
0
  6
Continuous
 62
     7
100
AcDbLine
 10
138.4308237482712
 20
687.6155015197633
 30
0.0
 11
138.5808237482712
 21
687.4655015197634
 31
0.0
  0
LINE
  5
109
330
1F
100
AcDbEntity
  8
0
  6
Continuous
 62
     7
100
AcDbLine
 10
140.1808237482711
 20
687.4655015197635
 30
0.0
 11
140.0808237482711
 21
687.2155015197635
 31
0.0
  0
LINE
  5
10A
330
1F
100
AcDbEntity
  8
0
  6
Continuous
 62
     7
100
AcDbLine
 10
139.1808237482711
 20
687.2155015197634
 30
0.0
 11
139.1308237482711
 21
687.5655015197635
 31
0.0
  0
LINE
  5
10B
330
1F
100
AcDbEntity
  8
0
  6
Continuous
 62
     7
100
AcDbLine
 10
140.5808237482711
 20
687.1155015197635
 30
0.0
 11
140.6808237482711
 21
687.3655015197635
 31
0.0
  0
LINE
  5
10C
330
1F
100
AcDbEntity
  8
0
  6
Continuous
 62
     7
100
AcDbLine
 10
141.4808237482711
 20
686.8655015197634
 30
0.0
 11
141.2308237482711
 21
686.8655015197634
 31
0.0
  0
LINE
  5
10D
330
1F
100
AcDbEntity
  8
0
  6
Continuous
 62
     7
100
AcDbLine
 10
141.1808237482713
 20
687.7655015197636
 30
0.0
 11
141.5308237482711
 21
687.7655015197635
 31
0.0
  0
LINE
  5
10E
330
1F
100
AcDbEntity
  8
0
  6
Continuous
 62
     7
100
AcDbLine
 10
141.2308237482711
 20
686.8655015197634
 30
0.0
 11
140.9808237482711
 21
686.8155015197633
 31
0.0
  0
LINE
  5
10F
330
1F
100
AcDbEntity
  8
0
  6
Continuous
 62
     7
100
AcDbLine
 10
141.7308237482712
 20
686.8155015197633
 30
0.0
 11
141.4808237482711
 21
686.8655015197634
 31
0.0
  0
LINE
  5
110
330
1F
100
AcDbEntity
  8
0
  6
Continuous
 62
     7
100
AcDbLine
 10
141.9808237482712
 20
686.7155015197634
 30
0.0
 11
141.7308237482712
 21
686.8155015197633
 31
0.0
  0
LINE
  5
111
330
1F
100
AcDbEntity
  8
0
  6
Continuous
 62
     7
100
AcDbLine
 10
138.5808237482711
 20
686.6655015197634
 30
0.0
 11
138.6808237482711
 21
686.9155015197634
 31
0.0
  0
LINE
  5
112
330
1F
100
AcDbEntity
  8
0
  6
Continuous
 62
     7
100
AcDbLine
 10
140.9808237482711
 20
686.8155015197633
 30
0.0
 11
140.7308237482711
 21
686.6655015197634
 31
0.0
  0
LINE
  5
113
330
1F
100
AcDbEntity
  8
0
  6
Continuous
 62
     7
100
AcDbLine
 10
141.9308237482711
 20
687.5155015197636
 30
0.0
 11
142.030823748271
 21
687.3655015197636
 31
0.0
  0
LINE
  5
114
330
1F
100
AcDbEntity
  8
0
  6
Continuous
 62
     7
100
AcDbLine
 10
142.130823748271
 20
686.6155015197634
 30
0.0
 11
141.9808237482712
 21
686.7155015197634
 31
0.0
  0
LINE
  5
115
330
1F
100
AcDbEntity
  8
0
  6
Continuous
 62
     7
100
AcDbLine
 10
139.1308237482711
 20
686.5655015197635
 30
0.0
 11
139.1808237482711
 21
686.9155015197634
 31
0.0
  0
LINE
  5
116
330
1F
100
AcDbEntity
  8
0
  6
Continuous
 62
     7
100
AcDbLine
 10
140.030823748271
 20
686.9155015197634
 30
0.0
 11
139.9808237482711
 21
686.4655015197634
 31
0.0
  0
LINE
  5
117
330
1F
100
AcDbEntity
  8
0
  6
Continuous
 62
     7
100
AcDbLine
 10
142.2808237482711
 20
686.4655015197635
 30
0.0
 11
142.130823748271
 21
686.6155015197634
 31
0.0
  0
LINE
  5
118
330
1F
100
AcDbEntity
  8
0
  6
Continuous
 62
     7
100
AcDbLine
 10
140.4808237482711
 20
686.4155015197634
 30
0.0
 11
140.5808237482711
 21
687.1155015197635
 31
0.0
  0
LINE
  5
119
330
1F
100
AcDbEntity
  8
0
  6
Continuous
 62
     7
100
AcDbLine
 10
138.1808237482712
 20
686.4155015197634
 30
0.0
 11
138.4308237482712
 21
686.5155015197635
 31
0.0
  0
LINE
  5
11A
330
1F
100
AcDbEntity
  8
0
  6
Continuous
 62
     7
100
AcDbLine
 10
140.7308237482711
 20
686.6655015197634
 30
0.0
 11
140.4808237482711
 21
686.4155015197634
 31
0.0
  0
LINE
  5
11B
330
1F
100
AcDbEntity
  8
0
  6
Continuous
 62
     7
100
AcDbLine
 10
136.8308237482711
 20
687.7655015197635
 30
0.0
 11
136.8308237482711
 21
686.3655015197634
 31
0.0
  0
LINE
  5
11C
330
1F
100
AcDbEntity
  8
0
  6
Continuous
 62
     7
100
AcDbLine
 10
138.1808237482712
 20
686.4155015197634
 30
0.0
 11
137.8808237482712
 21
686.3655015197634
 31
0.0
  0
LINE
  5
11D
330
1F
100
AcDbEntity
  8
0
  6
Continuous
 62
     7
100
AcDbLine
 10
139.1308237482711
 20
686.5655015197635
 30
0.0
 11
138.9308237482711
 21
686.2655015197635
 31
0.0
  0
LINE
  5
11E
330
1F
100
AcDbEntity
  8
0
  6
Continuous
 62
     7
100
AcDbLine
 10
141.2308237482712
 20
686.3655015197635
 30
0.0
 11
141.4808237482711
 21
686.3655015197634
 31
0.0
  0
LINE
  5
11F
330
1F
100
AcDbEntity
  8
0
  6
Continuous
 62
     7
100
AcDbLine
 10
140.9808237482712
 20
686.2655015197635
 30
0.0
 11
141.2308237482712
 21
686.3655015197635
 31
0.0
  0
LINE
  5
120
330
1F
100
AcDbEntity
  8
0
  6
Continuous
 62
     7
100
AcDbLine
 10
137.8808237482712
 20
686.3655015197634
 30
0.0
 11
136.8308237482711
 21
686.3655015197634
 31
0.0
  0
LINE
  5
121
330
1F
100
AcDbEntity
  8
0
  6
Continuous
 62
     7
100
AcDbLine
 10
142.4308237482711
 20
686.2655015197635
 30
0.0
 11
142.2808237482711
 21
686.4655015197635
 31
0.0
  0
LINE
  5
122
330
1F
100
AcDbEntity
  8
0
  6
Continuous
 62
     7
100
AcDbLine
 10
142.430823748271
 20
684.8655015197634
 30
0.0
 11
142.5308237482711
 21
685.0655015197635
 31
0.0
  0
LINE
  5
123
330
1F
100
AcDbEntity
  8
0
  6
Continuous
 62
     7
100
AcDbLine
 10
142.0808237482711
 20
687.1155015197635
 30
0.0
 11
142.5808237482711
 21
687.1155015197634
 31
0.0
  0
LINE
  5
124
330
1F
100
AcDbEntity
  8
0
  6
Continuous
 62
     7
100
AcDbLine
 10
142.4308237482711
 20
686.2655015197635
 30
0.0
 11
142.530823748271
 21
686.0655015197633
 31
0.0
  0
LINE
  5
125
330
1F
100
AcDbEntity
  8
0
  6
Continuous
 62
     7
100
AcDbLine
 10
141.9308237482712
 20
685.0155015197635
 30
0.0
 11
141.7308237482711
 21
684.8655015197634
 31
0.0
  0
LINE
  5
126
330
1F
100
AcDbEntity
  8
0
  6
Continuous
 62
     7
100
AcDbLine
 10
140.9808237482712
 20
684.8655015197634
 30
0.0
 11
140.7808237482711
 21
685.0155015197633
 31
0.0
  0
LINE
  5
127
330
1F
100
AcDbEntity
  8
0
  6
Continuous
 62
     7
100
AcDbLine
 10
151.9302289956604
 20
684.5155015197635
 30
0.0
 11
152.1802289956606
 21
684.5155015197635
 31
0.0
  0
LINE
  5
128
330
1F
100
AcDbEntity
  8
0
  6
Continuous
 62
     7
100
AcDbLine
 10
112.2300881896195
 20
684.2655015197635
 30
0.0
 11
112.2300881896195
 21
687.3655015197635
 31
0.0
  0
LINE
  5
129
330
1F
100
AcDbEntity
  8
0
  6
Continuous
 62
     7
100
AcDbLine
 10
113.9300881896195
 20
684.2655015197635
 30
0.0
 11
115.1300881896195
 21
687.3655015197635
 31
0.0
  0
LINE
  5
12A
330
1F
100
AcDbEntity
  8
0
  6
Continuous
 62
     7
100
AcDbLine
 10
136.8308237482711
 20
684.2655015197635
 30
0.0
 11
136.8308237482711
 21
685.8655015197634
 31
0.0
  0
LINE
  5
12B
330
1F
100
AcDbEntity
  8
0
  6
Continuous
 62
     7
100
AcDbLine
 10
140.7308237482713
 20
684.4155015197632
 30
0.0
 11
140.9808237482711
 21
684.3155015197635
 31
0.0
  0
LINE
  5
12C
330
1F
100
AcDbEntity
  8
0
  6
Continuous
 62
     7
100
AcDbLine
 10
140.5808237482711
 20
684.5155015197635
 30
0.0
 11
140.7308237482713
 21
684.4155015197632
 31
0.0
  0
LINE
  5
12D
330
1F
100
AcDbEntity
  8
0
  6
Continuous
 62
     7
100
AcDbLine
 10
140.9808237482711
 20
684.3155015197635
 30
0.0
 11
141.2308237482712
 21
684.2655015197633
 31
0.0
  0
LINE
  5
12E
330
1F
100
AcDbEntity
  8
0
  6
Continuous
 62
     7
100
AcDbLine
 10
141.7308237482711
 20
684.3155015197633
 30
0.0
 11
141.9808237482711
 21
684.4155015197634
 31
0.0
  0
LINE
  5
12F
330
1F
100
AcDbEntity
  8
0
  6
Continuous
 62
     7
100
AcDbLine
 10
141.4808237482711
 20
684.2655015197635
 30
0.0
 11
141.7308237482711
 21
684.3155015197633
 31
0.0
  0
LINE
  5
130
330
1F
100
AcDbEntity
  8
0
  6
Continuous
 62
     7
100
AcDbLine
 10
141.9808237482711
 20
684.4155015197634
 30
0.0
 11
142.1308237482712
 21
684.5155015197635
 31
0.0
  0
LINE
  5
131
330
1F
100
AcDbEntity
  8
0
  6
Continuous
 62
     7
100
AcDbLine
 10
112.2300881896195
 20
687.3655015197635
 30
0.0
 11
113.4300881896195
 21
684.2655015197633
 31
0.0
  0
LINE
  5
132
330
1F
100
AcDbEntity
  8
0
  6
Continuous
 62
     7
100
AcDbLine
 10
115.1300881896195
 20
687.3655015197635
 30
0.0
 11
115.1300881896195
 21
684.2655015197633
 31
0.0
  0
LINE
  5
133
330
1F
100
AcDbEntity
  8
0
  6
Continuous
 62
     7
100
AcDbLine
 10
152.1802289956606
 20
684.5155015197635
 30
0.0
 11
152.1802289956606
 21
683.7655015197635
 31
0.0
  0
LINE
  5
134
330
1F
100
AcDbEntity
  8
0
  6
Continuous
 62
     7
100
AcDbLine
 10
113.4300881896195
 20
684.2655015197633
 30
0.0
 11
113.9300881896195
 21
684.2655015197635
 31
0.0
  0
LINE
  5
135
330
1F
100
AcDbEntity
  8
0
  6
Continuous
 62
     7
100
AcDbLine
 10
111.7300881896195
 20
684.2655015197633
 30
0.0
 11
112.2300881896195
 21
684.2655015197635
 31
0.0
  0
LINE
  5
136
330
1F
100
AcDbEntity
  8
0
  6
Continuous
 62
     7
100
AcDbLine
 10
115.1300881896195
 20
684.2655015197633
 30
0.0
 11
115.6300881896195
 21
684.2655015197635
 31
0.0
  0
LINE
  5
137
330
1F
100
AcDbEntity
  8
0
  6
Continuous
 62
     7
100
AcDbLine
 10
136.8308237482711
 20
684.2655015197635
 30
0.0
 11
136.2808237482711
 21
684.2655015197635
 31
0.0
  0
LINE
  5
138
330
1F
100
AcDbEntity
  8
0
  6
Continuous
 62
     7
100
AcDbLine
 10
156.4302289956606
 20
683.7655015197635
 30
0.0
 11
156.1802289956606
 21
683.7655015197635
 31
0.0
  0
LINE
  5
139
330
1F
100
AcDbEntity
  8
0
  6
Continuous
 62
     7
100
AcDbLine
 10
152.1802289956606
 20
683.7655015197635
 30
0.0
 11
151.9302289956604
 21
683.7655015197635
 31
0.0
  0
LINE
  5
13A
330
1F
100
AcDbEntity
  8
0
  6
Continuous
 62
     7
100
AcDbLine
 10
144.5308237482711
 20
684.2655015197635
 30
0.0
 11
143.930823748271
 21
684.2655015197635
 31
0.0
  0
LINE
  5
13B
330
1F
100
AcDbEntity
  8
0
  6
Continuous
 62
     7
100
AcDbLine
 10
141.2308237482712
 20
684.2655015197633
 30
0.0
 11
141.4808237482711
 21
684.2655015197635
 31
0.0
  0
LINE
  5
13C
330
1F
100
AcDbEntity
  8
0
  6
Continuous
 62
     7
100
AcDbLine
 10
135.4808237482711
 20
684.2655015197635
 30
0.0
 11
134.930823748271
 21
684.2655015197635
 31
0.0
  0
LINE
  5
13D
330
1F
100
AcDbEntity
  8
0
  6
Continuous
 62
     7
100
AcDbLine
 10
109.1300881896195
 20
684.2655015197633
 30
0.0
 11
109.6800881896195
 21
684.2655015197635
 31
0.0
  0
LINE
  5
13E
330
1F
100
AcDbEntity
  8
0
  6
Continuous
 62
     7
100
AcDbLine
 10
109.1300881896195
 20
687.7655015197635
 30
0.0
 11
109.1300881896195
 21
684.2655015197633
 31
0.0
  0
LINE
  5
13F
330
1F
100
AcDbEntity
  8
0
  6
Continuous
 62
     7
100
AcDbLine
 10
107.8800881896195
 20
687.7655015197635
 30
0.0
 11
109.1300881896195
 21
687.7655015197635
 31
0.0
  0
LINE
  5
140
330
1F
100
AcDbEntity
  8
0
  6
Continuous
 62
     7
100
AcDbLine
 10
137.8808237482711
 20
687.7655015197635
 30
0.0
 11
138.1808237482711
 21
687.7155015197635
 31
0.0
  0
LINE
  5
141
330
1F
100
AcDbEntity
  8
0
  6
Continuous
 62
     7
100
AcDbLine
 10
109.6800881896195
 20
684.2655015197635
 30
0.0
 11
109.6800881896195
 21
687.7655015197635
 31
0.0
  0
LINE
  5
142
330
1F
100
AcDbEntity
  8
0
  6
Continuous
 62
     7
100
AcDbLine
 10
141.5308237482711
 20
687.7655015197635
 30
0.0
 11
141.7308237482712
 21
687.6655015197634
 31
0.0
  0
LINE
  5
143
330
1F
100
AcDbEntity
  8
0
  6
Continuous
 62
     7
100
AcDbLine
 10
140.9808237482712
 20
687.6655015197636
 30
0.0
 11
141.1808237482713
 21
687.7655015197636
 31
0.0
  0
LINE
  5
144
330
1F
100
AcDbEntity
  8
0
  6
Continuous
 62
     7
100
AcDbLine
 10
144.7808237482711
 20
686.8655015197635
 30
0.0
 11
145.4308237482711
 21
687.7655015197635
 31
0.0
  0
LINE
  5
145
330
1F
100
AcDbEntity
  8
0
  6
Continuous
 62
     7
100
AcDbLine
 10
146.0308237482711
 20
687.8155015197635
 30
0.0
 11
145.4308237482711
 21
686.9655015197635
 31
0.0
  0
LINE
  5
146
330
1F
100
AcDbEntity
  8
0
  6
Continuous
 62
     7
100
AcDbLine
 10
140.4308237482712
 20
687.8655015197635
 30
0.0
 11
140.2808237482711
 21
687.6655015197634
 31
0.0
  0
LINE
  5
147
330
1F
100
AcDbEntity
  8
0
  6
Continuous
 62
     7
100
AcDbLine
 10
138.9308237482711
 20
687.8655015197635
 30
0.0
 11
139.1308237482711
 21
687.5655015197635
 31
0.0
  0
LINE
  5
148
330
1F
100
AcDbEntity
  8
0
  6
Continuous
 62
     7
100
AcDbLine
 10
142.280823748271
 20
687.8655015197635
 30
0.0
 11
142.130823748271
 21
688.0155015197633
 31
0.0
  0
LINE
  5
149
330
1F
100
AcDbEntity
  8
0
  6
Continuous
 62
     7
100
AcDbLine
 10
140.5808237482713
 20
688.0155015197635
 30
0.0
 11
140.4308237482712
 21
687.8655015197635
 31
0.0
  0
LINE
  5
14A
330
1F
100
AcDbEntity
  8
0
  6
Continuous
 62
     7
100
AcDbLine
 10
138.9308237482711
 20
687.8655015197635
 30
0.0
 11
138.7308237482711
 21
688.0655015197635
 31
0.0
  0
LINE
  5
14B
330
1F
100
AcDbEntity
  8
0
  6
Continuous
 62
     7
100
AcDbLine
 10
146.0308237482711
 20
688.2655015197635
 30
0.0
 11
146.0308237482711
 21
687.8155015197635
 31
0.0
  0
LINE
  5
14C
330
1F
100
AcDbEntity
  8
0
  6
Continuous
 62
     7
100
AcDbLine
 10
143.4308237482711
 20
687.7655015197635
 30
0.0
 11
143.4308237482711
 21
688.2655015197635
 31
0.0
  0
LINE
  5
14D
330
1F
100
AcDbEntity
  8
0
  6
Continuous
 62
     7
100
AcDbLine
 10
140.7308237482711
 20
688.1155015197634
 30
0.0
 11
140.5808237482713
 21
688.0155015197635
 31
0.0
  0
LINE
  5
14E
330
1F
100
AcDbEntity
  8
0
  6
Continuous
 62
     7
100
AcDbLine
 10
138.7308237482711
 20
688.0655015197635
 30
0.0
 11
138.4308237482713
 21
688.2155015197634
 31
0.0
  0
LINE
  5
14F
330
1F
100
AcDbEntity
  8
0
  6
Continuous
 62
     7
100
AcDbLine
 10
140.9808237482711
 20
688.2155015197635
 30
0.0
 11
140.7308237482711
 21
688.1155015197634
 31
0.0
  0
LINE
  5
150
330
1F
100
AcDbEntity
  8
0
  6
Continuous
 62
     7
100
AcDbLine
 10
138.0308237482711
 20
688.2655015197635
 30
0.0
 11
136.2808237482711
 21
688.2655015197635
 31
0.0
  0
LINE
  5
151
330
1F
100
AcDbEntity
  8
0
  6
Continuous
 62
     7
100
AcDbLine
 10
143.4308237482711
 20
688.2655015197635
 30
0.0
 11
146.0308237482711
 21
688.2655015197635
 31
0.0
  0
LINE
  5
152
330
1F
100
AcDbEntity
  8
0
  6
Continuous
 62
     7
100
AcDbLine
 10
141.7308237482712
 20
688.2155015197634
 30
0.0
 11
141.5308237482712
 21
688.2655015197633
 31
0.0
  0
LINE
  5
153
330
1F
100
AcDbEntity
  8
0
  6
Continuous
 62
     7
100
AcDbLine
 10
151.9302289956604
 20
688.0155015197635
 30
0.0
 11
152.1802289956606
 21
688.0155015197635
 31
0.0
  0
LINE
  5
154
330
1F
100
AcDbEntity
  8
0
  6
Continuous
 62
     7
100
AcDbLine
 10
141.9808237482713
 20
688.1155015197634
 30
0.0
 11
142.130823748271
 21
688.0155015197633
 31
0.0
  0
LINE
  5
155
330
1F
100
AcDbEntity
  8
0
  6
Continuous
 62
     7
100
AcDbLine
 10
156.1802289956606
 20
688.0155015197635
 30
0.0
 11
156.4302289956606
 21
688.0155015197635
 31
0.0
  0
LINE
  5
156
330
1F
100
AcDbEntity
  8
0
  6
Continuous
 62
     7
100
AcDbLine
 10
141.9808237482713
 20
688.1155015197634
 30
0.0
 11
141.7308237482712
 21
688.2155015197634
 31
0.0
  0
LINE
  5
157
330
1F
100
AcDbEntity
  8
0
  6
Continuous
 62
     7
100
AcDbLine
 10
141.5308237482712
 20
688.2655015197633
 30
0.0
 11
141.1808237482711
 21
688.2655015197635
 31
0.0
  0
LINE
  5
158
330
1F
100
AcDbEntity
  8
0
  6
Continuous
 62
     7
100
AcDbLine
 10
134.9308237482711
 20
688.2655015197635
 30
0.0
 11
135.4808237482711
 21
688.2655015197635
 31
0.0
  0
LINE
  5
159
330
1F
100
AcDbEntity
  8
0
  6
Continuous
 62
     7
100
AcDbLine
 10
107.8800881896195
 20
688.2655015197635
 30
0.0
 11
107.8800881896195
 21
687.7655015197635
 31
0.0
  0
LINE
  5
15A
330
1F
100
AcDbEntity
  8
0
  6
Continuous
 62
     7
100
AcDbLine
 10
115.6300881896195
 20
688.2655015197635
 30
0.0
 11
114.9300881896195
 21
688.2655015197635
 31
0.0
  0
LINE
  5
15B
330
1F
100
AcDbEntity
  8
0
  6
Continuous
 62
     7
100
AcDbLine
 10
112.4300881896195
 20
688.2655015197635
 30
0.0
 11
111.7300881896195
 21
688.2655015197635
 31
0.0
  0
LINE
  5
15C
330
1F
100
AcDbEntity
  8
0
  6
Continuous
 62
     7
100
AcDbLine
 10
110.9300881896195
 20
687.7655015197635
 30
0.0
 11
110.9300881896195
 21
688.2655015197635
 31
0.0
  0
LINE
  5
15D
330
1F
100
AcDbEntity
  8
0
  6
Continuous
 62
     7
100
AcDbLine
 10
111.7300881896195
 20
688.2655015197635
 30
0.0
 11
111.7300881896195
 21
684.2655015197633
 31
0.0
  0
LINE
  5
15E
330
1F
100
AcDbEntity
  8
0
  6
Continuous
 62
     7
100
AcDbLine
 10
113.6800881896195
 20
685.0655015197633
 30
0.0
 11
112.4300881896195
 21
688.2655015197635
 31
0.0
  0
LINE
  5
15F
330
1F
100
AcDbEntity
  8
0
  6
Continuous
 62
     7
100
AcDbLine
 10
114.9300881896195
 20
688.2655015197635
 30
0.0
 11
113.6800881896195
 21
685.0655015197633
 31
0.0
  0
LINE
  5
160
330
1F
100
AcDbEntity
  8
0
  6
Continuous
 62
     7
100
AcDbLine
 10
136.2808237482711
 20
684.2655015197635
 30
0.0
 11
136.2808237482711
 21
688.2655015197635
 31
0.0
  0
LINE
  5
161
330
1F
100
AcDbEntity
  8
0
  6
Continuous
 62
     7
100
AcDbLine
 10
135.4808237482711
 20
688.2655015197635
 30
0.0
 11
135.4808237482711
 21
684.2655015197635
 31
0.0
  0
LINE
  5
162
330
1F
100
AcDbEntity
  8
0
  6
Continuous
 62
     7
100
AcDbLine
 10
134.930823748271
 20
684.2655015197635
 30
0.0
 11
134.9308237482711
 21
688.2655015197635
 31
0.0
  0
LINE
  5
163
330
1F
100
AcDbEntity
  8
0
  6
Continuous
 62
     7
100
AcDbLine
 10
138.4308237482713
 20
688.2155015197634
 30
0.0
 11
138.0308237482711
 21
688.2655015197635
 31
0.0
  0
LINE
  5
164
330
1F
100
AcDbEntity
  8
0
  6
Continuous
 62
     7
100
AcDbLine
 10
141.1808237482711
 20
688.2655015197635
 30
0.0
 11
140.9808237482711
 21
688.2155015197635
 31
0.0
  0
LINE
  5
165
330
1F
100
AcDbEntity
  8
0
  6
Continuous
 62
     7
100
AcDbLine
 10
115.6300881896195
 20
684.2655015197635
 30
0.0
 11
115.6300881896195
 21
688.2655015197635
 31
0.0
  0
LINE
  5
166
330
1F
100
AcDbEntity
  8
0
  6
Continuous
 62
     7
100
AcDbLine
 10
156.4302289956606
 20
688.0155015197635
 30
0.0
 11
156.4302289956606
 21
688.7655015197635
 31
0.0
  0
LINE
  5
167
330
1F
100
AcDbEntity
  8
0
  6
Continuous
 62
     7
100
AcDbLine
 10
152.1802289956606
 20
688.0155015197635
 30
0.0
 11
152.1802289956606
 21
688.7655015197635
 31
0.0
  0
LINE
  5
168
330
1F
100
AcDbEntity
  8
0
  6
Continuous
 62
     7
100
AcDbLine
 10
77.13022899564646
 20
685.4850656031821
 30
0.0
 11
76.22845940894075
 21
685.4850656031821
 31
0.0
  0
LINE
  5
169
330
1F
100
AcDbEntity
  8
0
  6
Continuous
 62
     7
100
AcDbLine
 10
82.41066491224547
 20
690.76550151976
 30
0.0
 11
82.41066491224547
 21
691.667271106499
 31
0.0
  0
LINE
  5
16A
330
1F
100
AcDbEntity
  8
0
  6
Continuous
 62
     2
100
AcDbLine
 10
76.21749568697743
 20
677.4878070033776
 30
0.0
 11
68.22845940894075
 21
677.4878070033776
 31
0.0
  0
LINE
  5
16B
330
1F
100
AcDbEntity
  8
0
  6
Continuous
 62
     2
100
AcDbLine
 10
77.1302289956464
 20
677.4878070033567
 30
0.0
 11
76.21749568697743
 21
677.4878070033776
 31
0.0
  0
LINE
  5
16C
330
1F
100
AcDbEntity
  8
0
  6
Continuous
 62
     2
100
AcDbLine
 10
76.21749568697743
 20
677.4878070033776
 30
0.0
 11
76.21749568697737
 21
685.4850656031821
 31
0.0
  0
LINE
  5
16D
330
1F
100
AcDbEntity
  8
0
  6
Continuous
 62
     2
100
AcDbLine
 10
82.41066491224547
 20
691.6782348284622
 30
0.0
 11
90.40792351204988
 21
691.6782348284622
 31
0.0
  0
LINE
  5
16E
330
1F
100
AcDbEntity
  8
0
  6
Continuous
 62
     2
100
AcDbLine
 10
90.40792351204993
 20
690.76550151976
 30
0.0
 11
90.40792351204988
 21
691.6782348284622
 31
0.0
  0
LINE
  5
16F
330
1F
100
AcDbEntity
  8
0
  6
Continuous
 62
     7
100
AcDbLine
 10
77.13022899564646
 20
685.6345719119141
 30
0.0
 11
77.13022899564646
 21
685.4850656031821
 31
0.0
  0
LINE
  5
170
330
1F
100
AcDbEntity
  8
0
  6
Continuous
 62
     2
100
AcDbLine
 10
82.26115860349239
 20
690.76550151976
 30
0.0
 11
82.41066491224547
 21
690.76550151976
 31
0.0
  0
LINE
  5
171
330
1F
100
AcDbEntity
  8
0
  6
Continuous
 62
     2
100
AcDbLine
 10
90.40792351204988
 20
691.6782348284622
 30
0.0
 11
90.40792351204988
 21
699.667271106499
 31
0.0
  0
LINE
  5
172
330
1F
100
AcDbEntity
  8
0
  6
Continuous
 62
     7
100
AcDbLine
 10
68.22845940894075
 20
677.4850656031821
 30
0.0
 11
68.22845940894081
 21
468.0431960361755
 31
0.0
  0
LINE
  5
173
330
1F
100
AcDbEntity
  8
0
  6
Continuous
 62
     7
100
AcDbLine
 10
67.63022899567613
 20
452.2631027945976
 30
0.0
 11
67.63022899567613
 21
693.2679002449346
 31
0.0
  0
LINE
  5
174
330
1F
100
AcDbEntity
  8
0
  6
Continuous
 62
     2
100
AcDbLine
 10
76.21749568697743
 20
468.0431960361861
 30
0.0
 11
77.1302289956464
 21
468.0431960362071
 31
0.0
  0
LINE
  5
175
330
1F
100
AcDbEntity
  8
0
  6
Continuous
 62
     2
100
AcDbLine
 10
76.21749568697743
 20
677.4878070033776
 30
0.0
 11
76.21749568697743
 21
468.0431960361755
 31
0.0
  0
LINE
  5
176
330
1F
100
AcDbEntity
  8
0
  6
Continuous
 62
     2
100
AcDbLine
 10
79.81992599566308
 20
470.965501519782
 30
0.0
 11
79.81992599566308
 21
674.5655375479805
 31
0.0
  0
LINE
  5
177
330
1F
100
AcDbEntity
  8
0
  6
Continuous
 62
     2
100
AcDbLine
 10
78.61992599566304
 20
470.965501519782
 30
0.0
 11
78.61992599566304
 21
674.5655375479805
 31
0.0
  0
LINE
  5
178
330
1F
100
AcDbEntity
  8
0
  6
Continuous
 62
     2
100
AcDbLine
 10
76.61992599566304
 20
674.5655375479804
 30
0.0
 11
76.6199259956631
 21
470.965501519782
 31
0.0
  0
LINE
  5
179
330
1F
100
AcDbEntity
  8
0
  6
Continuous
 62
     2
100
AcDbLine
 10
77.41992599566305
 20
470.965501519782
 30
0.0
 11
77.41992599566305
 21
674.5655375479805
 31
0.0
  0
LINE
  5
17A
330
1F
100
AcDbEntity
  8
0
  6
Continuous
 62
     2
100
AcDbLine
 10
76.21992599566306
 20
470.965501519782
 30
0.0
 11
76.21992599566306
 21
674.5655375479805
 31
0.0
  0
LINE
  5
17B
330
1F
100
AcDbEntity
  8
0
  6
Continuous
 62
     2
100
AcDbLine
 10
77.81992599566303
 20
674.5655375479804
 30
0.0
 11
77.81992599566303
 21
470.965501519782
 31
0.0
  0
LINE
  5
17C
330
1F
100
AcDbEntity
  8
0
  6
Continuous
 62
     2
100
AcDbLine
 10
79.01992599566302
 20
674.5655375479804
 30
0.0
 11
79.01992599566302
 21
470.965501519782
 31
0.0
  0
LINE
  5
17D
330
1F
100
AcDbEntity
  8
0
  6
Continuous
 62
     2
100
AcDbLine
 10
80.21992599566306
 20
674.5655375479804
 30
0.0
 11
80.21992599566306
 21
470.965501519782
 31
0.0
  0
LINE
  5
17E
330
1F
100
AcDbEntity
  8
0
  6
Continuous
 62
     2
100
AcDbLine
 10
90.40792351204993
 20
454.7655015198037
 30
0.0
 11
82.41066491224547
 21
454.7655015198037
 31
0.0
  0
LINE
  5
17F
330
1F
100
AcDbEntity
  8
0
  6
Continuous
 62
     7
100
AcDbLine
 10
76.22845940894075
 20
460.0459374363816
 30
0.0
 11
77.13022899564646
 21
460.0459374363816
 31
0.0
  0
LINE
  5
180
330
1F
100
AcDbEntity
  8
0
  6
Continuous
 62
     7
100
AcDbLine
 10
82.41066491224547
 20
453.8637319330647
 30
0.0
 11
82.41066491224547
 21
454.7655015198037
 31
0.0
  0
LINE
  5
181
330
1F
100
AcDbEntity
  8
0
  6
Continuous
 62
     2
100
AcDbLine
 10
68.22845940894075
 20
468.0431960361861
 30
0.0
 11
76.21749568697743
 21
468.0431960361861
 31
0.0
  0
LINE
  5
182
330
1F
100
AcDbEntity
  8
0
  6
Continuous
 62
     2
100
AcDbLine
 10
76.21749568697737
 20
460.0459374363816
 30
0.0
 11
76.21749568697743
 21
468.0431960361861
 31
0.0
  0
LINE
  5
183
330
1F
100
AcDbEntity
  8
0
  6
Continuous
 62
     2
100
AcDbLine
 10
90.40792351204988
 20
453.8527682111014
 30
0.0
 11
82.41066491224547
 21
453.8527682111014
 31
0.0
  0
LINE
  5
184
330
1F
100
AcDbEntity
  8
0
  6
Continuous
 62
     2
100
AcDbLine
 10
90.40792351204988
 20
453.8527682111014
 30
0.0
 11
90.40792351204993
 21
454.7655015198037
 31
0.0
  0
LINE
  5
185
330
1F
100
AcDbEntity
  8
0
  6
Continuous
 62
     7
100
AcDbLine
 10
77.13022899564646
 20
460.0459374363816
 30
0.0
 11
77.13022899564646
 21
459.8964311276495
 31
0.0
  0
LINE
  5
186
330
1F
100
AcDbEntity
  8
0
  6
Continuous
 62
     2
100
AcDbLine
 10
82.41066491224547
 20
454.7655015198037
 30
0.0
 11
82.26115860349239
 21
454.7655015198037
 31
0.0
  0
LINE
  5
187
330
1F
100
AcDbEntity
  8
0
  6
Continuous
 62
     2
100
AcDbLine
 10
90.40792351204988
 20
445.8637319330647
 30
0.0
 11
90.40792351204988
 21
453.8527682111014
 31
0.0
  0
LINE
  5
188
330
1F
100
AcDbEntity
  8
0
  6
Continuous
 62
     7
100
AcDbLine
 10
172.1302289956747
 20
460.0459374363816
 30
0.0
 11
173.0429623043438
 21
460.0459374363816
 31
0.0
  0
LINE
  5
189
330
1F
100
AcDbEntity
  8
0
  6
Continuous
 62
     7
100
AcDbLine
 10
166.8497930790757
 20
454.7655015198037
 30
0.0
 11
166.8497930790757
 21
453.8637319330647
 31
0.0
  0
LINE
  5
18A
330
1F
100
AcDbEntity
  8
0
  6
Continuous
 62
     2
100
AcDbLine
 10
173.0429623043438
 20
468.0431960361861
 30
0.0
 11
181.0319985823805
 21
468.0431960361861
 31
0.0
  0
LINE
  5
18B
330
1F
100
AcDbEntity
  8
0
  6
Continuous
 62
     2
100
AcDbLine
 10
172.1302289956749
 20
468.0431960362071
 30
0.0
 11
173.0429623043438
 21
468.0431960361861
 31
0.0
  0
LINE
  5
18C
330
1F
100
AcDbEntity
  8
0
  6
Continuous
 62
     2
100
AcDbLine
 10
173.0429623043438
 20
468.0431960361861
 30
0.0
 11
173.0429623043438
 21
460.0459374363816
 31
0.0
  0
LINE
  5
18D
330
1F
100
AcDbEntity
  8
0
  6
Continuous
 62
     2
100
AcDbLine
 10
166.8497930790757
 20
453.8527682111014
 30
0.0
 11
158.8525344792714
 21
453.8527682111014
 31
0.0
  0
LINE
  5
18E
330
1F
100
AcDbEntity
  8
0
  6
Continuous
 62
     2
100
AcDbLine
 10
158.8525344792713
 20
454.7655015198037
 30
0.0
 11
158.8525344792714
 21
453.8527682111014
 31
0.0
  0
LINE
  5
18F
330
1F
100
AcDbEntity
  8
0
  6
Continuous
 62
     7
100
AcDbLine
 10
172.1302289956747
 20
459.8964311276495
 30
0.0
 11
172.1302289956747
 21
460.0459374363816
 31
0.0
  0
LINE
  5
190
330
1F
100
AcDbEntity
  8
0
  6
Continuous
 62
     2
100
AcDbLine
 10
166.9992993878288
 20
454.7655015198037
 30
0.0
 11
166.8497930790757
 21
454.7655015198037
 31
0.0
  0
LINE
  5
191
330
1F
100
AcDbEntity
  8
0
  6
Continuous
 62
     2
100
AcDbLine
 10
158.8525344792714
 20
453.8527682111014
 30
0.0
 11
158.8525344792714
 21
445.8637319330647
 31
0.0
  0
LINE
  5
192
330
1F
100
AcDbEntity
  8
0
  6
Continuous
 62
     2
100
AcDbLine
 10
158.8525344792607
 20
453.8527682110698
 30
0.0
 11
90.40792351204993
 21
453.8527682110698
 31
0.0
  0
LINE
  5
193
330
1F
100
AcDbEntity
  8
0
  6
Continuous
 62
     7
100
AcDbLine
 10
174.6326277208184
 20
445.2655015197687
 30
0.0
 11
74.627830270505
 21
445.2655015197687
 31
0.0
  0
LINE
  5
194
330
1F
100
AcDbEntity
  8
0
  6
Continuous
 62
     7
100
AcDbLine
 10
158.8525344792607
 20
445.8637319330333
 30
0.0
 11
90.40792351204988
 21
445.8637319330333
 31
0.0
  0
LINE
  5
195
330
1F
100
AcDbEntity
  8
0
  6
Continuous
 62
     2
100
AcDbLine
 10
169.4405319956605
 20
674.5655375479804
 30
0.0
 11
169.4405319956606
 21
470.965501519782
 31
0.0
  0
LINE
  5
196
330
1F
100
AcDbEntity
  8
0
  6
Continuous
 62
     2
100
AcDbLine
 10
170.6405319956606
 20
674.5655375479804
 30
0.0
 11
170.6405319956607
 21
470.965501519782
 31
0.0
  0
LINE
  5
197
330
1F
100
AcDbEntity
  8
0
  6
Continuous
 62
     2
100
AcDbLine
 10
171.4405319956606
 20
470.965501519782
 30
0.0
 11
171.4405319956606
 21
674.5655375479805
 31
0.0
  0
LINE
  5
198
330
1F
100
AcDbEntity
  8
0
  6
Continuous
 62
     2
100
AcDbLine
 10
169.0405319956606
 20
470.965501519782
 30
0.0
 11
169.0405319956605
 21
674.5655375479805
 31
0.0
  0
LINE
  5
199
330
1F
100
AcDbEntity
  8
0
  6
Continuous
 62
     2
100
AcDbLine
 10
170.2405319956606
 20
470.965501519782
 30
0.0
 11
170.2405319956606
 21
674.5655375479805
 31
0.0
  0
LINE
  5
19A
330
1F
100
AcDbEntity
  8
0
  6
Continuous
 62
     2
100
AcDbLine
 10
171.8405319956606
 20
674.5655375479804
 30
0.0
 11
171.8405319956606
 21
470.965501519782
 31
0.0
  0
LINE
  5
19B
330
1F
100
AcDbEntity
  8
0
  6
Continuous
 62
     2
100
AcDbLine
 10
172.6405319956606
 20
470.965501519782
 30
0.0
 11
172.6405319956606
 21
674.5655375479805
 31
0.0
  0
LINE
  5
19C
330
1F
100
AcDbEntity
  8
0
  6
Continuous
 62
     2
100
AcDbLine
 10
173.0405319956605
 20
674.5655375479804
 30
0.0
 11
173.0405319956605
 21
470.965501519782
 31
0.0
  0
LINE
  5
19D
330
1F
100
AcDbEntity
  8
0
  6
Continuous
 62
     2
100
AcDbLine
 10
173.0429623043461
 20
468.0431960361755
 30
0.0
 11
173.0429623043461
 21
677.4878070033776
 31
0.0
  0
LINE
  5
19E
330
1F
100
AcDbEntity
  8
0
  6
Continuous
 62
     7
100
AcDbLine
 10
181.0319985823827
 20
468.0431960361755
 30
0.0
 11
181.0319985823827
 21
677.4878070033776
 31
0.0
  0
LINE
  5
19F
330
1F
100
AcDbEntity
  8
0
  6
Continuous
 62
     7
100
AcDbLine
 10
181.6302289956471
 20
693.2679002449346
 30
0.0
 11
181.6302289956472
 21
452.2631027945976
 31
0.0
  0
LINE
  5
1A0
330
1F
100
AcDbEntity
  8
0
  6
Continuous
 62
     7
100
AcDbLine
 10
173.0319985823805
 20
685.4850656031821
 30
0.0
 11
172.1302289956747
 21
685.4850656031821
 31
0.0
  0
LINE
  5
1A1
330
1F
100
AcDbEntity
  8
0
  6
Continuous
 62
     7
100
AcDbLine
 10
166.8497930790757
 20
691.667271106499
 30
0.0
 11
166.8497930790757
 21
690.76550151976
 31
0.0
  0
LINE
  5
1A2
330
1F
100
AcDbEntity
  8
0
  6
Continuous
 62
     2
100
AcDbLine
 10
181.0319985823805
 20
677.4878070033776
 30
0.0
 11
173.0429623043438
 21
677.4878070033776
 31
0.0
  0
LINE
  5
1A3
330
1F
100
AcDbEntity
  8
0
  6
Continuous
 62
     2
100
AcDbLine
 10
173.0429623043438
 20
677.4878070033776
 30
0.0
 11
172.1302289956749
 21
677.4878070033567
 31
0.0
  0
LINE
  5
1A4
330
1F
100
AcDbEntity
  8
0
  6
Continuous
 62
     2
100
AcDbLine
 10
173.0429623043438
 20
685.4850656031821
 30
0.0
 11
173.0429623043438
 21
677.4878070033776
 31
0.0
  0
LINE
  5
1A5
330
1F
100
AcDbEntity
  8
0
  6
Continuous
 62
     2
100
AcDbLine
 10
158.8525344792714
 20
691.6782348284622
 30
0.0
 11
166.8497930790757
 21
691.6782348284622
 31
0.0
  0
LINE
  5
1A6
330
1F
100
AcDbEntity
  8
0
  6
Continuous
 62
     2
100
AcDbLine
 10
158.8525344792714
 20
691.6782348284622
 30
0.0
 11
158.8525344792713
 21
690.76550151976
 31
0.0
  0
LINE
  5
1A7
330
1F
100
AcDbEntity
  8
0
  6
Continuous
 62
     7
100
AcDbLine
 10
172.1302289956747
 20
685.4850656031821
 30
0.0
 11
172.1302289956747
 21
685.6345719119141
 31
0.0
  0
LINE
  5
1A8
330
1F
100
AcDbEntity
  8
0
  6
Continuous
 62
     2
100
AcDbLine
 10
166.8497930790757
 20
690.76550151976
 30
0.0
 11
166.9992993878288
 21
690.76550151976
 31
0.0
  0
LINE
  5
1A9
330
1F
100
AcDbEntity
  8
0
  6
Continuous
 62
     2
100
AcDbLine
 10
158.8525344792714
 20
699.667271106499
 30
0.0
 11
158.8525344792714
 21
691.6782348284622
 31
0.0
  0
LINE
  5
1AA
330
1F
100
AcDbEntity
  8
0
  6
Continuous
 62
     2
100
AcDbLine
 10
158.8525344792607
 20
691.6782348284622
 30
0.0
 11
90.40792351204988
 21
691.6782348284622
 31
0.0
  0
LINE
  5
1AB
330
1F
100
AcDbEntity
  8
0
  6
Continuous
 62
     7
100
AcDbLine
 10
158.8525344792607
 20
699.667271106499
 30
0.0
 11
90.41066491224547
 21
699.667271106499
 31
0.0
  0
LINE
  5
1AC
330
1F
100
AcDbEntity
  8
0
  6
Continuous
 62
     7
100
AcDbLine
 10
74.627830270505
 20
700.2655015197635
 30
0.0
 11
174.6326277208184
 21
700.2655015197635
 31
0.0
  0
LINE
  5
1AD
330
1F
100
AcDbEntity
  8
1
  6
Continuous
 62
     7
100
AcDbLine
 10
281.8802289956435
 20
459.4093526921678
 30
0.0
 11
281.8802289956435
 21
459.8964311276286
 31
0.0
  0
LINE
  5
1AE
330
1F
100
AcDbEntity
  8
1
  6
Continuous
 62
     7
100
AcDbLine
 10
281.8802289956435
 20
685.634571911935
 30
0.0
 11
281.8802289956435
 21
686.1216503473959
 31
0.0
  0
LINE
  5
1AF
330
1F
100
AcDbEntity
  8
0
  6
Continuous
 62
     7
100
AcDbLine
 10
295.3802289956435
 20
572.7655015197819
 30
0.0
 11
295.3802289956435
 21
468.0431960361861
 31
0.0
  0
LINE
  5
1B0
330
1F
100
AcDbEntity
  8
0
  6
Continuous
 62
     2
100
AcDbLine
 10
287.798916645587
 20
572.7655015197819
 30
0.0
 11
287.798916645587
 21
468.0431960361861
 31
0.0
  0
LINE
  5
1B1
330
1F
100
AcDbEntity
  8
0
  6
Continuous
 62
     7
100
AcDbLine
 10
281.8802289956403
 20
467.8882097455921
 30
0.0
 11
281.8802289956403
 21
572.7655015197819
 31
0.0
  0
LINE
  5
1B2
330
1F
100
AcDbEntity
  8
1
  6
Continuous
 62
     7
100
AcDbLine
 10
281.8802289956435
 20
445.5535466570612
 30
0.0
 11
281.8802289956435
 21
446.040625092522
 31
0.0
  0
LINE
  5
1B3
330
1F
100
AcDbEntity
  8
1
  6
Continuous
 62
     7
100
AcDbLine
 10
281.3933174697973
 20
445.5407964300344
 30
0.0
 11
281.8802289956435
 21
445.5535466570612
 31
0.0
  0
LINE
  5
1B4
330
1F
100
AcDbEntity
  8
0
  6
Continuous
 62
     2
100
AcDbLine
 10
287.5896445821065
 20
453.8527682111014
 30
0.0
 11
287.5896445821065
 21
454.7655015198037
 31
0.0
  0
LINE
  5
1B5
330
1F
100
AcDbEntity
  8
0
  6
Continuous
 62
     7
100
AcDbLine
 10
282.3671405214896
 20
459.9091813546557
 30
0.0
 11
287.5896445821065
 21
460.0459374363816
 31
0.0
  0
LINE
  5
1B6
330
1F
100
AcDbEntity
  8
0
  6
Continuous
 62
     7
100
AcDbLine
 10
281.8802289956435
 20
459.8964311276286
 30
0.0
 11
281.8802289956403
 21
467.8882097455921
 31
0.0
  0
LINE
  5
1B7
330
1F
100
AcDbEntity
  8
0
  6
Continuous
 62
     2
100
AcDbLine
 10
287.5896445821065
 20
454.7655015198037
 30
0.0
 11
281.8802289956435
 21
454.7655015198037
 31
0.0
  0
LINE
  5
1B8
330
1F
100
AcDbEntity
  8
0
  6
Continuous
 62
     2
100
AcDbLine
 10
287.5896445821065
 20
454.7655015198037
 30
0.0
 11
287.5896445821065
 21
460.0459374363816
 31
0.0
  0
LINE
  5
1B9
330
1F
100
AcDbEntity
  8
0
  6
Continuous
 62
     2
100
AcDbLine
 10
281.8802289956403
 20
467.8882097455921
 30
0.0
 11
287.798916645587
 21
468.0431960361861
 31
0.0
  0
LINE
  5
1BA
330
1F
100
AcDbEntity
  8
0
  6
Continuous
 62
     7
100
AcDbLine
 10
281.8802289956435
 20
446.040625092522
 30
0.0
 11
281.8802289956435
 21
454.7655015198037
 31
0.0
  0
LINE
  5
1BB
330
1F
100
AcDbEntity
  8
0
  6
Continuous
 62
     7
100
AcDbLine
 10
281.8802289956435
 20
454.7655015198037
 30
0.0
 11
281.8802289956435
 21
459.4093526921678
 31
0.0
  0
LINE
  5
1BC
330
1F
100
AcDbEntity
  8
0
  6
Continuous
 62
     7
100
AcDbLine
 10
270.8802289956435
 20
445.2655015198003
 30
0.0
 11
281.3933174697973
 21
445.5407964300344
 31
0.0
  0
LINE
  5
1BD
330
1F
100
AcDbEntity
  8
0
  6
Continuous
 62
     7
100
AcDbLine
 10
270.8802289956435
 20
445.2655015198003
 30
0.0
 11
270.880228995643
 21
572.7655015197819
 31
0.0
  0
LINE
  5
1BE
330
1F
100
AcDbEntity
  8
0
  6
Continuous
 62
     7
100
AcDbLine
 10
287.798916645587
 20
445.8637319330649
 30
0.0
 11
281.8802289956435
 21
445.5535466570612
 31
0.0
  0
LINE
  5
1BF
330
1F
100
AcDbEntity
  8
0
  6
Continuous
 62
     2
100
AcDbLine
 10
287.798916645587
 20
468.0431960361861
 30
0.0
 11
295.3802289956435
 21
468.0431960361861
 31
0.0
  0
LINE
  5
1C0
330
1F
100
AcDbEntity
  8
0
  6
Continuous
 62
     7
100
AcDbLine
 10
295.3802289956435
 20
453.8527682111014
 30
0.0
 11
295.3802289956436
 21
454.7655015198037
 31
0.0
  0
LINE
  5
1C1
330
1F
100
AcDbEntity
  8
0
  6
Continuous
 62
     7
100
AcDbLine
 10
281.8802289956403
 20
572.7655015197819
 30
0.0
 11
281.8802289956403
 21
677.6427932939715
 31
0.0
  0
LINE
  5
1C2
330
1F
100
AcDbEntity
  8
1
  6
Continuous
 62
     7
100
AcDbLine
 10
281.8802289956435
 20
699.4903779470417
 30
0.0
 11
281.8802289956435
 21
699.9774563825025
 31
0.0
  0
LINE
  5
1C3
330
1F
100
AcDbEntity
  8
1
  6
Continuous
 62
     7
100
AcDbLine
 10
281.8802289956435
 20
699.9774563825025
 30
0.0
 11
281.3933174697973
 21
699.9902066095294
 31
0.0
  0
LINE
  5
1C4
330
1F
100
AcDbEntity
  8
0
  6
Continuous
 62
     2
100
AcDbLine
 10
287.5896445821065
 20
690.76550151976
 30
0.0
 11
287.5896445821065
 21
691.6782348284622
 31
0.0
  0
LINE
  5
1C5
330
1F
100
AcDbEntity
  8
0
  6
Continuous
 62
     7
100
AcDbLine
 10
287.5896445821065
 20
685.4850656031821
 30
0.0
 11
282.3671405214896
 21
685.6218216849081
 31
0.0
  0
LINE
  5
1C6
330
1F
100
AcDbEntity
  8
0
  6
Continuous
 62
     7
100
AcDbLine
 10
281.8802289956403
 20
677.6427932939715
 30
0.0
 11
281.8802289956435
 21
685.634571911935
 31
0.0
  0
LINE
  5
1C7
330
1F
100
AcDbEntity
  8
0
  6
Continuous
 62
     2
100
AcDbLine
 10
281.8802289956435
 20
690.76550151976
 30
0.0
 11
287.5896445821065
 21
690.76550151976
 31
0.0
  0
LINE
  5
1C8
330
1F
100
AcDbEntity
  8
0
  6
Continuous
 62
     2
100
AcDbLine
 10
287.5896445821065
 20
685.4850656031821
 30
0.0
 11
287.5896445821065
 21
690.76550151976
 31
0.0
  0
LINE
  5
1C9
330
1F
100
AcDbEntity
  8
0
  6
Continuous
 62
     2
100
AcDbLine
 10
287.798916645587
 20
677.4878070033776
 30
0.0
 11
281.8802289956403
 21
677.6427932939715
 31
0.0
  0
LINE
  5
1CA
330
1F
100
AcDbEntity
  8
0
  6
Continuous
 62
     7
100
AcDbLine
 10
281.8802289956435
 20
690.76550151976
 30
0.0
 11
281.8802289956435
 21
699.4903779470417
 31
0.0
  0
LINE
  5
1CB
330
1F
100
AcDbEntity
  8
0
  6
Continuous
 62
     7
100
AcDbLine
 10
281.8802289956435
 20
686.1216503473959
 30
0.0
 11
281.8802289956435
 21
690.76550151976
 31
0.0
  0
LINE
  5
1CC
330
1F
100
AcDbEntity
  8
0
  6
Continuous
 62
     2
100
AcDbLine
 10
287.798916645587
 20
677.4878070033776
 30
0.0
 11
287.798916645587
 21
572.7655015197819
 31
0.0
  0
LINE
  5
1CD
330
1F
100
AcDbEntity
  8
0
  6
Continuous
 62
     7
100
AcDbLine
 10
281.3933174697973
 20
699.9902066095294
 30
0.0
 11
270.8802289956441
 21
700.2655015197635
 31
0.0
  0
LINE
  5
1CE
330
1F
100
AcDbEntity
  8
0
  6
Continuous
 62
     7
100
AcDbLine
 10
270.880228995643
 20
572.7655015197819
 30
0.0
 11
270.8802289956441
 21
700.2655015197635
 31
0.0
  0
LINE
  5
1CF
330
1F
100
AcDbEntity
  8
0
  6
Continuous
 62
     7
100
AcDbLine
 10
281.8802289956435
 20
699.9774563825025
 30
0.0
 11
287.798916645587
 21
699.6672711064989
 31
0.0
  0
LINE
  5
1D0
330
1F
100
AcDbEntity
  8
0
  6
Continuous
 62
     7
100
AcDbLine
 10
295.3802289956435
 20
677.4878070033776
 30
0.0
 11
295.3802289956435
 21
572.7655015197819
 31
0.0
  0
LINE
  5
1D1
330
1F
100
AcDbEntity
  8
0
  6
Continuous
 62
     2
100
AcDbLine
 10
295.3802289956435
 20
677.4878070033776
 30
0.0
 11
287.798916645587
 21
677.4878070033776
 31
0.0
  0
LINE
  5
1D2
330
1F
100
AcDbEntity
  8
0
  6
Continuous
 62
     7
100
AcDbLine
 10
295.3802289956436
 20
690.76550151976
 30
0.0
 11
295.3802289956435
 21
691.6782348284622
 31
0.0
  0
LINE
  5
1D3
330
1F
100
AcDbEntity
  8
0
  6
Continuous
 62
     2
100
AcDbLine
 10
287.5896445821065
 20
690.76550151976
 30
0.0
 11
295.3802289956436
 21
690.76550151976
 31
0.0
  0
LINE
  5
1D4
330
1F
100
AcDbEntity
  8
0
  6
Continuous
 62
     7
100
AcDbLine
 10
295.3802289956435
 20
677.4878070033776
 30
0.0
 11
295.3802289956436
 21
690.76550151976
 31
0.0
  0
LINE
  5
1D5
330
1F
100
AcDbEntity
  8
0
  6
Continuous
 62
     7
100
AcDbLine
 10
295.3802289956436
 20
454.7655015198037
 30
0.0
 11
295.3802289956435
 21
468.0431960361861
 31
0.0
  0
LINE
  5
1D6
330
1F
100
AcDbEntity
  8
0
  6
Continuous
 62
     2
100
AcDbLine
 10
295.3802289956436
 20
454.7655015198037
 30
0.0
 11
287.5896445821065
 21
454.7655015198037
 31
0.0
  0
ARC
  5
1D7
330
1F
100
AcDbEntity
  8
0
  6
Continuous
 62
     7
100
AcDbCircle
 10
105.6550881896195
 20
686.2655015197635
 30
0.0
 40
0.1249999999998593
100
AcDbArc
 50
299.981639368884
 51
60.01836063116804
  0
ARC
  5
1D8
330
1F
100
AcDbEntity
  8
0
  6
Continuous
 62
     7
100
AcDbCircle
 10
99.40522703994945
 20
686.5155015197635
 30
0.0
 40
0.124999999999961
100
AcDbArc
 50
210.0000000000103
 51
329.999999999993
  0
ARC
  5
1D9
330
1F
100
AcDbEntity
  8
0
  6
Continuous
 62
     7
100
AcDbCircle
 10
100.4565023805931
 20
688.6889145037896
 30
0.0
 40
0.1987246593564009
100
AcDbArc
 50
0.0
 51
150.0000000000832
  0
ARC
  5
1DA
330
1F
100
AcDbEntity
  8
0
  6
Continuous
 62
     7
100
AcDbCircle
 10
101.4052270399495
 20
688.082376639889
 30
0.0
 40
0.2500000000002677
100
AcDbArc
 50
60.01836063115848
 51
180.0
  0
ARC
  5
1DB
330
1F
100
AcDbEntity
  8
0
  6
Continuous
 62
     7
100
AcDbCircle
 10
102.4052270399495
 20
687.505453562966
 30
0.0
 40
0.2499999999998241
100
AcDbArc
 50
240.0183606311261
 51
60.01836063115891
  0
ARC
  5
1DC
330
1F
100
AcDbEntity
  8
0
  6
Continuous
 62
     7
100
AcDbCircle
 10
93.15536589027958
 20
686.2655015197635
 30
0.0
 40
0.1250000000002106
100
AcDbArc
 50
119.981639368746
 51
240.0183606311329
  0
ARC
  5
1DD
330
1F
100
AcDbEntity
  8
0
  6
Continuous
 62
     7
100
AcDbCircle
 10
98.35395169930602
 20
688.6889145037896
 30
0.0
 40
0.1987246593563076
100
AcDbArc
 50
29.9999999999493
 51
180.0
  0
ARC
  5
1DE
330
1F
100
AcDbEntity
  8
0
  6
Continuous
 62
     7
100
AcDbCircle
 10
97.40522703994945
 20
688.082376639889
 30
0.0
 40
0.25
100
AcDbArc
 50
0.0
 51
180.0
  0
ARC
  5
1DF
330
1F
100
AcDbEntity
  8
0
  6
Continuous
 62
     7
100
AcDbCircle
 10
96.40522703994945
 20
687.505453562966
 30
0.0
 40
0.25
100
AcDbArc
 50
0.0
 51
180.0
  0
ARC
  5
1E0
330
1F
100
AcDbEntity
  8
0
  6
Continuous
 62
     7
100
AcDbCircle
 10
102.4052270399495
 20
686.2655015197635
 30
0.0
 40
0.25
100
AcDbArc
 50
270.0
 51
90.0
  0
ARC
  5
1E1
330
1F
100
AcDbEntity
  8
0
  6
Continuous
 62
     7
100
AcDbCircle
 10
93.15536589027958
 20
686.2655015197635
 30
0.0
 40
0.325000000000216
100
AcDbArc
 50
180.0
 51
240.0183606311548
  0
ARC
  5
1E2
330
1F
100
AcDbEntity
  8
0
  6
Continuous
 62
     7
100
AcDbCircle
 10
96.40522703994945
 20
685.025549476561
 30
0.0
 40
0.25
100
AcDbArc
 50
180.0
 51
0.0
  0
ARC
  5
1E3
330
1F
100
AcDbEntity
  8
0
  6
Continuous
 62
     7
100
AcDbCircle
 10
98.40522703994945
 20
685.0261903242383
 30
0.0
 40
0.25
100
AcDbArc
 50
180.0
 51
0.0
  0
ARC
  5
1E4
330
1F
100
AcDbEntity
  8
0
  6
Continuous
 62
     7
100
AcDbCircle
 10
97.65522703994945
 20
684.593017380788
 30
0.0
 40
0.5
100
AcDbArc
 50
180.0
 51
240.0183606311415
  0
ARC
  5
1E5
330
1F
100
AcDbEntity
  8
0
  6
Continuous
 62
     7
100
AcDbCircle
 10
99.15522703994945
 20
683.4390110150227
 30
0.0
 40
0.2500000000001124
100
AcDbArc
 50
240.0183606311681
 51
60.0183606311229
  0
ARC
  5
1E6
330
1F
100
AcDbEntity
  8
0
  6
Continuous
 62
     7
100
AcDbCircle
 10
105.6550881896195
 20
686.2655015197635
 30
0.0
 40
0.3249999999998704
100
AcDbArc
 50
299.98163936886
 51
60.01836063115518
  0
ARC
  5
1E7
330
1F
100
AcDbEntity
  8
0
  6
Continuous
 62
     7
100
AcDbCircle
 10
100.4052270399495
 20
683.871703322715
 30
0.0
 40
0.25
100
AcDbArc
 50
180.0000000000261
 51
0.0
  0
ARC
  5
1E8
330
1F
100
AcDbEntity
  8
0
  6
Continuous
 62
     7
100
AcDbCircle
 10
101.4052270399495
 20
684.4486263996381
 30
0.0
 40
0.25
100
AcDbArc
 50
180.0
 51
299.9816393688676
  0
ARC
  5
1E9
330
1F
100
AcDbEntity
  8
0
  6
Continuous
 62
     7
100
AcDbCircle
 10
102.4052270399495
 20
685.025549476561
 30
0.0
 40
0.2499999999998738
100
AcDbArc
 50
299.9816393688936
 51
119.9816393688541
  0
ARC
  5
1EA
330
1F
100
AcDbEntity
  8
0
  6
Continuous
 62
     7
100
AcDbCircle
 10
156.1802289956606
 20
686.2655015197635
 30
0.0
 40
1.750000000000131
100
AcDbArc
 50
192.3736251161876
 51
270.0
  0
ARC
  5
1EB
330
1F
100
AcDbEntity
  8
0
  6
Continuous
 62
     7
100
AcDbCircle
 10
156.1802289956606
 20
686.2655015197635
 30
0.0
 40
1.75
100
AcDbArc
 50
90.0
 51
167.6263748838124
  0
ARC
  5
1EC
330
1F
100
AcDbEntity
  8
0
  6
Continuous
 62
     7
100
AcDbCircle
 10
151.9302289956604
 20
686.2655015197635
 30
0.0
 40
1.75
100
AcDbArc
 50
90.0
 51
270.0
  0
ARC
  5
1ED
330
1F
100
AcDbEntity
  8
0
  6
Continuous
 62
     7
100
AcDbCircle
 10
156.1802289956606
 20
686.2655015197635
 30
0.0
 40
2.5
100
AcDbArc
 50
90.0
 51
270.0
  0
ARC
  5
1EE
330
1F
100
AcDbEntity
  8
0
  6
Continuous
 62
     7
100
AcDbCircle
 10
151.9302289956604
 20
686.2655015197635
 30
0.0
 40
2.5
100
AcDbArc
 50
90.0
 51
270.0
  0
ARC
  5
1EF
330
1F
100
AcDbEntity
  8
0
  6
Continuous
 62
     2
100
AcDbCircle
 10
77.13022899564652
 20
690.76550151976
 30
0.0
 40
13.27769451640336
100
AcDbArc
 50
269.9999999999995
 51
0.0
  0
ARC
  5
1F0
330
1F
100
AcDbEntity
  8
0
  6
Continuous
 62
     7
100
AcDbCircle
 10
77.13022899565698
 20
690.7655015197706
 30
0.0
 40
5.280435916588544
100
AcDbArc
 50
269.9999999998859
 51
359.9999999998853
  0
ARC
  5
1F1
330
1F
100
AcDbEntity
  8
0
  6
Continuous
 62
     7
100
AcDbCircle
 10
77.13022899564652
 20
690.76550151976
 30
0.0
 40
5.130929607845871
100
AcDbArc
 50
0.0
 51
269.9999999999994
  0
ARC
  5
1F2
330
1F
100
AcDbEntity
  8
0
  6
Continuous
 62
     2
100
AcDbCircle
 10
76.41992599566305
 20
674.5655375479804
 30
0.0
 40
0.1999999999999886
100
AcDbArc
 50
0.0
 51
179.9999999999674
  0
ARC
  5
1F3
330
1F
100
AcDbEntity
  8
0
  6
Continuous
 62
     2
100
AcDbCircle
 10
77.61992599566304
 20
674.5655375479804
 30
0.0
 40
0.1999999999999886
100
AcDbArc
 50
0.0
 51
179.9999999999674
  0
ARC
  5
1F4
330
1F
100
AcDbEntity
  8
0
  6
Continuous
 62
     2
100
AcDbCircle
 10
78.81992599566303
 20
674.5655375479804
 30
0.0
 40
0.1999999999999886
100
AcDbArc
 50
0.0
 51
179.9999999999674
  0
ARC
  5
1F5
330
1F
100
AcDbEntity
  8
0
  6
Continuous
 62
     2
100
AcDbCircle
 10
80.01992599566307
 20
674.5655375479804
 30
0.0
 40
0.1999999999999886
100
AcDbArc
 50
0.0
 51
179.9999999999674
  0
ARC
  5
1F6
330
1F
100
AcDbEntity
  8
0
  6
Continuous
 62
     2
100
AcDbCircle
 10
78.81992599566303
 20
470.965501519782
 30
0.0
 40
0.1999999999999886
100
AcDbArc
 50
180.0
 51
0.0
  0
ARC
  5
1F7
330
1F
100
AcDbEntity
  8
0
  6
Continuous
 62
     2
100
AcDbCircle
 10
76.41992599566305
 20
470.965501519782
 30
0.0
 40
0.1999999999999886
100
AcDbArc
 50
180.0
 51
0.0
  0
ARC
  5
1F8
330
1F
100
AcDbEntity
  8
0
  6
Continuous
 62
     2
100
AcDbCircle
 10
77.61992599566304
 20
470.965501519782
 30
0.0
 40
0.1999999999999886
100
AcDbArc
 50
180.0
 51
0.0
  0
ARC
  5
1F9
330
1F
100
AcDbEntity
  8
0
  6
Continuous
 62
     2
100
AcDbCircle
 10
80.01992599566307
 20
470.965501519782
 30
0.0
 40
0.1999999999999886
100
AcDbArc
 50
180.0
 51
0.0
  0
ARC
  5
1FA
330
1F
100
AcDbEntity
  8
0
  6
Continuous
 62
     2
100
AcDbCircle
 10
77.13022899564652
 20
454.7655015198037
 30
0.0
 40
13.27769451640341
100
AcDbArc
 50
0.0
 51
90.0000000000005
  0
ARC
  5
1FB
330
1F
100
AcDbEntity
  8
0
  6
Continuous
 62
     7
100
AcDbCircle
 10
77.13022899565698
 20
454.7655015197932
 30
0.0
 40
5.280435916588488
100
AcDbArc
 50
0.00000000011411
 51
90.00000000011411
  0
ARC
  5
1FC
330
1F
100
AcDbEntity
  8
0
  6
Continuous
 62
     7
100
AcDbCircle
 10
77.13022899564652
 20
454.7655015198037
 30
0.0
 40
5.130929607845815
100
AcDbArc
 50
90.00000000000064
 51
0.0
  0
ARC
  5
1FD
330
1F
100
AcDbEntity
  8
0
  6
Continuous
 62
     2
100
AcDbCircle
 10
172.1302289956747
 20
454.7655015198037
 30
0.0
 40
13.27769451640341
100
AcDbArc
 50
89.99999999999915
 51
180.0
  0
ARC
  5
1FE
330
1F
100
AcDbEntity
  8
0
  6
Continuous
 62
     7
100
AcDbCircle
 10
172.1302289956643
 20
454.7655015197932
 30
0.0
 40
5.280435916588431
100
AcDbArc
 50
89.99999999988714
 51
179.9999999998859
  0
ARC
  5
1FF
330
1F
100
AcDbEntity
  8
0
  6
Continuous
 62
     7
100
AcDbCircle
 10
172.1302289956747
 20
454.7655015198037
 30
0.0
 40
5.1309296078459
100
AcDbArc
 50
180.0
 51
90.0
  0
ARC
  5
200
330
1F
100
AcDbEntity
  8
0
  6
Continuous
 62
     2
100
AcDbCircle
 10
169.2405319956605
 20
470.965501519782
 30
0.0
 40
0.1999999999999034
100
AcDbArc
 50
180.0
 51
0.0
  0
ARC
  5
201
330
1F
100
AcDbEntity
  8
0
  6
Continuous
 62
     2
100
AcDbCircle
 10
170.4405319956605
 20
470.965501519782
 30
0.0
 40
0.2000000000001592
100
AcDbArc
 50
270.0
 51
0.0
  0
ARC
  5
202
330
1F
100
AcDbEntity
  8
0
  6
Continuous
 62
     2
100
AcDbCircle
 10
171.6405319956606
 20
470.965501519782
 30
0.0
 40
0.2000000000000171
100
AcDbArc
 50
180.0
 51
0.0
  0
ARC
  5
203
330
1F
100
AcDbEntity
  8
0
  6
Continuous
 62
     2
100
AcDbCircle
 10
172.8405319956606
 20
470.965501519782
 30
0.0
 40
0.1999999999999886
100
AcDbArc
 50
180.0
 51
0.0
  0
ARC
  5
204
330
1F
100
AcDbEntity
  8
0
  6
Continuous
 62
     2
100
AcDbCircle
 10
169.2405319956605
 20
674.5655375479804
 30
0.0
 40
0.2000000000000171
100
AcDbArc
 50
0.0
 51
179.9999999999674
  0
ARC
  5
205
330
1F
100
AcDbEntity
  8
0
  6
Continuous
 62
     2
100
AcDbCircle
 10
170.4405319956605
 20
674.5655375479804
 30
0.0
 40
0.1999999999999318
100
AcDbArc
 50
90.0
 51
179.9999999999674
  0
ARC
  5
206
330
1F
100
AcDbEntity
  8
0
  6
Continuous
 62
     2
100
AcDbCircle
 10
171.6405319956606
 20
674.5655375479804
 30
0.0
 40
0.1999999999999886
100
AcDbArc
 50
0.0
 51
179.9999999999674
  0
ARC
  5
207
330
1F
100
AcDbEntity
  8
0
  6
Continuous
 62
     2
100
AcDbCircle
 10
172.8405319956606
 20
674.5655375479804
 30
0.0
 40
0.2000000000000455
100
AcDbArc
 50
90.0
 51
179.9999999999674
  0
ARC
  5
208
330
1F
100
AcDbEntity
  8
0
  6
Continuous
 62
     2
100
AcDbCircle
 10
172.1302289956747
 20
690.76550151976
 30
0.0
 40
13.27769451640341
100
AcDbArc
 50
180.0
 51
270.0000000000009
  0
ARC
  5
209
330
1F
100
AcDbEntity
  8
0
  6
Continuous
 62
     7
100
AcDbCircle
 10
172.1302289956643
 20
690.7655015197706
 30
0.0
 40
5.280435916588601
100
AcDbArc
 50
180.0000000001147
 51
270.0000000001129
  0
ARC
  5
20A
330
1F
100
AcDbEntity
  8
0
  6
Continuous
 62
     7
100
AcDbCircle
 10
172.1302289956747
 20
690.76550151976
 30
0.0
 40
5.130929607845928
100
AcDbArc
 50
270.0
 51
180.0
  0
ARC
  5
20B
330
1F
100
AcDbEntity
  8
0
  6
Continuous
 62
     7
100
AcDbCircle
 10
93.15536589027958
 20
686.2655015197635
 30
0.0
 40
0.3250000000001171
100
AcDbArc
 50
119.9816393688552
 51
180.0
  0
ARC
  5
20C
330
1F
100
AcDbEntity
  8
0
  6
Continuous
 62
     2
100
AcDbCircle
 10
172.8405319956606
 20
674.5655375479804
 30
0.0
 40
0.1999999999999034
100
AcDbArc
 50
0.0
 51
90.0
  0
ARC
  5
20D
330
1F
100
AcDbEntity
  8
0
  6
Continuous
 62
     2
100
AcDbCircle
 10
170.4405319956605
 20
470.965501519782
 30
0.0
 40
0.1999999999999034
100
AcDbArc
 50
180.0
 51
270.0
  0
ARC
  5
20E
330
1F
100
AcDbEntity
  8
0
  6
Continuous
 62
     2
100
AcDbCircle
 10
170.4405319956605
 20
674.5655375479804
 30
0.0
 40
0.2000000000001023
100
AcDbArc
 50
0.0
 51
90.0
  0
ARC
  5
20F
330
1F
100
AcDbEntity
  8
0
  6
Continuous
 62
     7
100
AcDbCircle
 10
287.3802289956435
 20
468.0431960361861
 30
0.0
 40
8.000000000000009
100
AcDbArc
 50
271.4999999999999
 51
0.0
  0
ARC
  5
210
330
1F
100
AcDbEntity
  8
0
  6
Continuous
 62
     7
100
AcDbCircle
 10
287.3802289956435
 20
453.8527682111014
 30
0.0
 40
7.999999999999913
100
AcDbArc
 50
272.9999999999995
 51
0.0
  0
ARC
  5
211
330
1F
100
AcDbEntity
  8
0
  6
Continuous
 62
     7
100
AcDbCircle
 10
287.3802289956435
 20
677.4878070033776
 30
0.0
 40
8.0
100
AcDbArc
 50
0.0
 51
88.50000000000014
  0
ARC
  5
212
330
1F
100
AcDbEntity
  8
0
  6
Continuous
 62
     7
100
AcDbCircle
 10
287.3802289956435
 20
691.6782348284622
 30
0.0
 40
8.0
100
AcDbArc
 50
0.0
 51
87.00000000000055
  0
CIRCLE
  5
213
330
1F
100
AcDbEntity
  8
0
  6
Continuous
 62
     7
100
AcDbCircle
 10
77.13022899564652
 20
690.76550151976
 30
0.0
 40
2.199999999985891
  0
CIRCLE
  5
214
330
1F
100
AcDbEntity
  8
0
  6
Continuous
 62
     7
100
AcDbCircle
 10
77.13022899564652
 20
454.7655015198037
 30
0.0
 40
2.199999999985891
  0
CIRCLE
  5
215
330
1F
100
AcDbEntity
  8
0
  6
Continuous
 62
     7
100
AcDbCircle
 10
172.1302289956747
 20
454.7655015198037
 30
0.0
 40
2.19999999998592
  0
CIRCLE
  5
216
330
1F
100
AcDbEntity
  8
0
  6
Continuous
 62
     7
100
AcDbCircle
 10
172.1302289956747
 20
690.76550151976
 30
0.0
 40
2.19999999998592
  0
SPLINE
  5
217
330
1F
100
AcDbEntity
  8
0
  6
Continuous
 62
     7
100
AcDbSpline
210
0.0
220
0.0
230
1.0
 70
     8
 71
     3
 72
    15
 73
    11
 74
     9
 42
0.000000001
 43
0.0000000001
 44
0.00000001
 40
0.0
 40
0.0
 40
0.0
 40
0.0
 40
1.372021433384853
 40
2.74387348950571
 40
4.115595912505201
 40
5.487248178726459
 40
6.858900444947612
 40
8.230622867947076
 40
9.602474924067964
 40
10.97449635745283
 40
10.97449635745283
 40
10.97449635745283
 40
10.97449635745283
 10
67.63022899567613
 20
693.2679002449346
 30
0.0
 10
67.65626363954136
 20
693.7259737677838
 30
0.0
 10
67.70832972766556
 20
694.6420642624724
 30
0.0
 10
68.12433674731676
 20
695.9633319913587
 30
0.0
 10
68.77095381513746
 20
697.1810247834504
 30
0.0
 10
69.64781820901044
 20
698.2479123064293
 30
0.0
 10
70.71470573198899
 20
699.124776700302
 30
0.0
 10
71.93239852408092
 20
699.771393768123
 30
0.0
 10
73.25366625296707
 20
700.1874007877739
 30
0.0
 10
74.16975674765584
 20
700.2394668758982
 30
0.0
 10
74.627830270505
 20
700.2655015197635
 30
0.0
 11
67.63022899567613
 21
693.2679002449346
 31
0.0
 11
67.76466147750084
 21
694.6333198603761
 31
0.0
 11
68.16279596280506
 21
695.9461286815564
 31
0.0
 11
68.80934690731557
 21
697.1559196909479
 31
0.0
 11
69.67948818350871
 21
698.216242331931
 31
0.0
 11
70.73981082449166
 21
699.086383608124
 31
0.0
 11
71.94960183388321
 21
699.7329345526346
 31
0.0
 11
73.26241065506346
 21
700.1310690379387
 31
0.0
 11
74.627830270505
 21
700.2655015197635
 31
0.0
  0
SPLINE
  5
218
330
1F
100
AcDbEntity
  8
0
  6
Continuous
 62
     7
100
AcDbSpline
210
0.0
220
0.0
230
1.0
 70
     8
 71
     3
 72
    15
 73
    11
 74
     9
 42
0.000000001
 43
0.0000000001
 44
0.00000001
 40
0.0
 40
0.0
 40
0.0
 40
0.0
 40
1.372021433384909
 40
2.743873489505821
 40
4.115595912505312
 40
5.487248178726482
 40
6.858900444947672
 40
8.230622867947163
 40
9.602474924068101
 40
10.97449635745294
 40
10.97449635745294
 40
10.97449635745294
 40
10.97449635745294
 10
67.63022899567613
 20
452.2631027946292
 30
0.0
 10
67.65626363954135
 20
451.80502927178
 30
0.0
 10
67.70832972766557
 20
450.8889387770913
 30
0.0
 10
68.12433674731672
 20
449.5676710482051
 30
0.0
 10
68.77095381513743
 20
448.3499782561132
 30
0.0
 10
69.64781820901048
 20
447.2830907331344
 30
0.0
 10
70.71470573198897
 20
446.4062263392616
 30
0.0
 10
71.93239852408094
 20
445.7596092714409
 30
0.0
 10
73.25366625296704
 20
445.3436022517895
 30
0.0
 10
74.16975674765584
 20
445.2915361636655
 30
0.0
 10
74.627830270505
 20
445.2655015198003
 30
0.0
 11
67.63022899567613
 21
452.2631027946292
 31
0.0
 11
67.76466147750084
 21
450.8976831791877
 31
0.0
 11
68.16279596280506
 21
449.5848743580074
 31
0.0
 11
68.80934690731557
 21
448.3750833486158
 31
0.0
 11
69.67948818350871
 21
447.3147607076328
 31
0.0
 11
70.73981082449166
 21
446.4446194314397
 31
0.0
 11
71.94960183388321
 21
445.7980684869292
 31
0.0
 11
73.26241065506346
 21
445.3999340016249
 31
0.0
 11
74.627830270505
 21
445.2655015198003
 31
0.0
  0
SPLINE
  5
219
330
1F
100
AcDbEntity
  8
0
  6
Continuous
 62
     7
100
AcDbSpline
210
0.0
220
0.0
230
1.0
 70
     8
 71
     3
 72
    15
 73
    11
 74
     9
 42
0.000000001
 43
0.0000000001
 44
0.00000001
 40
0.0
 40
0.0
 40
0.0
 40
0.0
 40
1.372021433384908
 40
2.743873489505829
 40
4.115595912505306
 40
5.487248178726467
 40
6.858900444947667
 40
8.230622867947197
 40
9.602474924068161
 40
10.97449635745297
 40
10.97449635745297
 40
10.97449635745297
 40
10.97449635745297
 10
181.6302289956451
 20
452.2631027946292
 30
0.0
 10
181.6041943517799
 20
451.80502927178
 30
0.0
 10
181.5521282636557
 20
450.8889387770911
 30
0.0
 10
181.1361212440045
 20
449.5676710482052
 30
0.0
 10
180.4895041761839
 20
448.3499782561132
 30
0.0
 10
179.6126397823107
 20
447.2830907331345
 30
0.0
 10
178.5457522593323
 20
446.4062263392616
 30
0.0
 10
177.3280594672402
 20
445.7596092714409
 30
0.0
 10
176.0067917383542
 20
445.3436022517897
 30
0.0
 10
175.0907012436654
 20
445.2915361636655
 30
0.0
 10
174.6326277208162
 20
445.2655015198003
 30
0.0
 11
181.6302289956451
 21
452.2631027946292
 31
0.0
 11
181.4957965138204
 21
450.8976831791877
 31
0.0
 11
181.0976620285161
 21
449.5848743580074
 31
0.0
 11
180.4511110840057
 21
448.3750833486158
 31
0.0
 11
179.5809698078126
 21
447.3147607076328
 31
0.0
 11
178.5206471668296
 21
446.4446194314397
 31
0.0
 11
177.310856157438
 21
445.7980684869292
 31
0.0
 11
175.9980473362577
 21
445.3999340016249
 31
0.0
 11
174.6326277208162
 21
445.2655015198003
 31
0.0
  0
SPLINE
  5
21A
330
1F
100
AcDbEntity
  8
0
  6
Continuous
 62
     7
100
AcDbSpline
210
0.0
220
0.0
230
1.0
 70
     8
 71
     3
 72
    15
 73
    11
 74
     9
 42
0.000000001
 43
0.0000000001
 44
0.00000001
 40
0.0
 40
0.0
 40
0.0
 40
0.0
 40
1.372021433384851
 40
2.743873489505718
 40
4.115595912505195
 40
5.487248178726444
 40
6.858900444947608
 40
8.23062286794711
 40
9.602474924068025
 40
10.97449635745286
 40
10.97449635745286
 40
10.97449635745286
 40
10.97449635745286
 10
181.6302289956451
 20
693.2679002449346
 30
0.0
 10
181.6041943517799
 20
693.7259737677838
 30
0.0
 10
181.5521282636558
 20
694.6420642624727
 30
0.0
 10
181.1361212440044
 20
695.9633319913585
 30
0.0
 10
180.4895041761839
 20
697.1810247834508
 30
0.0
 10
179.6126397823108
 20
698.247912306429
 30
0.0
 10
178.5457522593323
 20
699.1247767003022
 30
0.0
 10
177.3280594672403
 20
699.7713937681228
 30
0.0
 10
176.0067917383541
 20
700.1874007877738
 30
0.0
 10
175.0907012436654
 20
700.2394668758982
 30
0.0
 10
174.6326277208162
 20
700.2655015197635
 30
0.0
 11
181.6302289956451
 21
693.2679002449346
 31
0.0
 11
181.4957965138204
 21
694.6333198603761
 31
0.0
 11
181.0976620285161
 21
695.9461286815564
 31
0.0
 11
180.4511110840057
 21
697.1559196909479
 31
0.0
 11
179.5809698078126
 21
698.216242331931
 31
0.0
 11
178.5206471668296
 21
699.086383608124
 31
0.0
 11
177.310856157438
 21
699.7329345526346
 31
0.0
 11
175.9980473362577
 21
700.1310690379387
 31
0.0
 11
174.6326277208162
 21
700.2655015197635
 31
0.0
  0
SPLINE
  5
21B
330
1F
100
AcDbEntity
  8
0
  6
Continuous
 62
     2
100
AcDbSpline
210
0.0
220
0.0
230
1.0
 70
     8
 71
     3
 72
    19
 73
    15
 74
    13
 42
0.000000001
 43
0.0000000001
 44
0.00000001
 40
0.0
 40
0.0
 40
0.0
 40
0.0
 40
1.043215816383771
 40
2.068475739288131
 40
3.058319906704725
 40
3.99589930892922
 40
4.86526793922405
 40
5.651662682879535
 40
6.341768363715783
 40
6.923972335245194
 40
7.388625715604362
 40
7.72839282125128
 40
7.939135393930798
 40
8.02658405574551
 40
8.02658405574551
 40
8.02658405574551
 40
8.02658405574551
 10
287.798916645587
 20
468.0431960361861
 30
0.0
 10
287.807313856123
 20
467.6955573961553
 30
0.0
 10
287.8239637572625
 20
467.0062636936119
 30
0.0
 10
287.8396784131448
 20
465.9869333457394
 30
0.0
 10
287.8481757275088
 20
465.0027307616429
 30
0.0
 10
287.8486816071487
 20
464.0704681585031
 30
0.0
 10
287.8414917105388
 20
463.2059948207527
 30
0.0
 10
287.8263565824428
 20
462.4242998926577
 30
0.0
 10
287.804845063791
 20
461.7379780029922
 30
0.0
 10
287.7738957580719
 20
461.1608879719778
 30
0.0
 10
287.7443490148241
 20
460.6966938731421
 30
0.0
 10
287.6925575367066
 20
460.3680018966113
 30
0.0
 10
287.6744433530925
 20
460.1449296034465
 30
0.0
 10
287.6088737584287
 20
460.0683851492432
 30
0.0
 10
287.5896445821065
 20
460.0459374363816
 30
0.0
 11
287.798916645587
 21
468.0431960361861
 31
0.0
 11
287.8225766851914
 21
467.0002485620572
 31
0.0
 11
287.8386812145646
 21
465.9751151299084
 31
0.0
 11
287.8469551531085
 21
464.9853055433216
 31
0.0
 11
287.8472571855224
 21
464.0477261897642
 31
0.0
 11
287.839582145278
 21
463.178391438908
 31
0.0
 11
287.8240611334058
 21
462.3921498787172
 31
0.0
 11
287.8009592489274
 21
461.7024309841169
 31
0.0
 11
287.7706710903744
 21
461.1210153910986
 31
0.0
 11
287.7337139875779
 21
460.6578340699202
 31
0.0
 11
287.6907191919522
 21
460.3207982655299
 31
0.0
 11
287.6424210700836
 21
460.115664837585
 31
0.0
 11
287.5896445821065
 21
460.0459374363816
 31
0.0
  0
SPLINE
  5
21C
330
1F
100
AcDbEntity
  8
0
  6
Continuous
 62
     2
100
AcDbSpline
210
0.0
220
0.0
230
1.0
 70
     8
 71
     3
 72
    23
 73
    19
 74
    17
 42
0.000000001
 43
0.0000000001
 44
0.00000001
 40
0.0
 40
0.0
 40
0.0
 40
0.0
 40
0.0354475178321892
 40
0.1281046887560087
 40
0.2799840868086619
 40
0.4902852620744603
 40
0.7572733522427693
 40
1.079491947094252
 40
1.454303030109792
 40
1.878456481802052
 40
2.349547668086042
 40
2.863628240617293
 40
3.416258212072274
 40
4.00429065536934
 40
4.94163488943811
 40
5.931361122281137
 40
6.95657886799426
 40
7.99978989423748
 40
7.99978989423748
 40
7.99978989423748
 40
7.99978989423748
 10
287.798916645587
 20
445.8637319330649
 30
0.0
 10
287.8049979184453
 20
445.8739875869801
 30
0.0
 10
287.8269752052159
 20
445.9110507458086
 30
0.0
 10
287.828092521341
 20
446.0078494687907
 30
0.0
 10
287.8420960575431
 20
446.1570438290534
 30
0.0
 10
287.8455016758736
 20
446.3676659743983
 30
0.0
 10
287.8488404402896
 20
446.6337983343199
 30
0.0
 10
287.847563543723
 20
446.9552724009798
 30
0.0
 10
287.8432482122798
 20
447.3289336073908
 30
0.0
 10
287.835337141714
 20
447.7522289717128
 30
0.0
 10
287.8240575559528
 20
448.2218657815525
 30
0.0
 10
287.8094253941447
 20
448.7342603927352
 30
0.0
 10
287.7915641630735
 20
449.2855528869881
 30
0.0
 10
287.7667936054469
 20
449.9777799409728
 30
0.0
 10
287.7336348275221
 20
450.815494384358
 30
0.0
 10
287.6907530971902
 20
451.798657571124
 30
0.0
 10
287.6428775611224
 20
452.8169208742611
 30
0.0
 10
287.6074915116403
 20
453.5054891447217
 30
0.0
 10
287.5896445821065
 20
453.8527682111014
 30
0.0
 11
287.798916645587
 21
445.8637319330649
 31
0.0
 11
287.8155168733548
 21
445.8950521956754
 31
0.0
 11
287.8287969958913
 21
445.9867527390066
 31
0.0
 11
287.8386812145646
 21
446.138310166102
 31
0.0
 11
287.8450802163769
 21
446.348513964929
 31
0.0
 11
287.8479443224924
 21
446.6154866922728
 31
0.0
 11
287.8472571855224
 21
446.937704554403
 31
0.0
 11
287.8430196359799
 21
447.3124916821113
 31
0.0
 11
287.8352728799509
 21
447.7365743843392
 31
0.0
 11
287.8240611334058
 21
448.2075321345811
 31
0.0
 11
287.8094753138687
 21
448.7214057463815
 31
0.0
 11
287.7916447090888
 21
449.2737479907089
 31
0.0
 11
287.7706710903744
 21
449.8614062771949
 31
0.0
 11
287.7337139875779
 21
450.7980216655345
 31
0.0
 11
287.6907191919522
 21
451.786813586779
 31
0.0
 11
287.6424210700836
 21
452.8108930356373
 31
0.0
 11
287.5896445821065
 21
453.8527682111014
 31
0.0
  0
SPLINE
  5
21D
330
1F
100
AcDbEntity
  8
0
  6
Continuous
 62
     2
100
AcDbSpline
210
0.0
220
0.0
230
1.0
 70
     8
 71
     3
 72
    19
 73
    15
 74
    13
 42
0.000000001
 43
0.0000000001
 44
0.00000001
 40
0.0
 40
0.0
 40
0.0
 40
0.0
 40
1.043215816383885
 40
2.068475739288245
 40
3.058319906704668
 40
3.99589930892922
 40
4.865267939224277
 40
5.651662682879478
 40
6.341768363715726
 40
6.923972335245194
 40
7.388625715604419
 40
7.728392821251337
 40
7.939135393930799
 40
8.026584055745511
 40
8.026584055745511
 40
8.026584055745511
 40
8.026584055745511
 10
287.798916645587
 20
677.4878070033776
 30
0.0
 10
287.807313856123
 20
677.8354456434085
 30
0.0
 10
287.8239637572625
 20
678.5247393459517
 30
0.0
 10
287.8396784131448
 20
679.5440696938244
 30
0.0
 10
287.8481757275089
 20
680.5282722779209
 30
0.0
 10
287.8486816071487
 20
681.4605348810607
 30
0.0
 10
287.8414917105388
 20
682.325008218811
 30
0.0
 10
287.8263565824428
 20
683.1067031469058
 30
0.0
 10
287.804845063791
 20
683.7930250365715
 30
0.0
 10
287.7738957580719
 20
684.3701150675861
 30
0.0
 10
287.7443490148241
 20
684.8343091664216
 30
0.0
 10
287.6925575367067
 20
685.1630011429525
 30
0.0
 10
287.6744433530925
 20
685.3860734361172
 30
0.0
 10
287.6088737584287
 20
685.4626178903205
 30
0.0
 10
287.5896445821065
 20
685.4850656031821
 30
0.0
 11
287.798916645587
 21
677.4878070033776
 31
0.0
 11
287.8225766851914
 21
678.5307544775067
 31
0.0
 11
287.8386812145646
 21
679.5558879096554
 31
0.0
 11
287.8469551531085
 21
680.545697496242
 31
0.0
 11
287.8472571855224
 21
681.4832768497995
 31
0.0
 11
287.839582145278
 21
682.3526116006559
 31
0.0
 11
287.8240611334058
 21
683.1388531608465
 31
0.0
 11
287.8009592489274
 21
683.8285720554468
 31
0.0
 11
287.7706710903744
 21
684.4099876484651
 31
0.0
 11
287.7337139875779
 21
684.8731689696435
 31
0.0
 11
287.6907191919522
 21
685.2102047740339
 31
0.0
 11
287.6424210700836
 21
685.4153382019787
 31
0.0
 11
287.5896445821065
 21
685.4850656031821
 31
0.0
  0
SPLINE
  5
21E
330
1F
100
AcDbEntity
  8
0
  6
Continuous
 62
     2
100
AcDbSpline
210
0.0
220
0.0
230
1.0
 70
     8
 71
     3
 72
    23
 73
    19
 74
    17
 42
0.000000001
 43
0.0000000001
 44
0.00000001
 40
0.0
 40
0.0
 40
0.0
 40
0.0
 40
0.0354475178322394
 40
0.1281046887560589
 40
0.2799840868088823
 40
0.490285262074567
 40
0.7572733522427055
 40
1.079491947094245
 40
1.454303030109615
 40
1.878456481801989
 40
2.349547668086148
 40
2.863628240617285
 40
3.416258212072097
 40
4.004290655369389
 40
4.941634889438159
 40
5.931361122281186
 40
6.956578867994309
 40
7.999789894237643
 40
7.999789894237643
 40
7.999789894237643
 40
7.999789894237643
 10
287.798916645587
 20
699.6672711064989
 30
0.0
 10
287.8049979184453
 20
699.6570154525837
 30
0.0
 10
287.8269752052159
 20
699.6199522937552
 30
0.0
 10
287.8280925213411
 20
699.5231535707729
 30
0.0
 10
287.842096057543
 20
699.3739592105102
 30
0.0
 10
287.8455016758737
 20
699.1633370651656
 30
0.0
 10
287.8488404402895
 20
698.8972047052439
 30
0.0
 10
287.847563543723
 20
698.5757306385842
 30
0.0
 10
287.8432482122798
 20
698.202069432173
 30
0.0
 10
287.835337141714
 20
697.7787740678509
 30
0.0
 10
287.8240575559528
 20
697.3091372580113
 30
0.0
 10
287.8094253941447
 20
696.7967426468286
 30
0.0
 10
287.7915641630736
 20
696.245450152576
 30
0.0
 10
287.7667936054469
 20
695.5532230985908
 30
0.0
 10
287.7336348275222
 20
694.715508655206
 30
0.0
 10
287.6907530971901
 20
693.7323454684393
 30
0.0
 10
287.6428775611224
 20
692.7140821653031
 30
0.0
 10
287.6074915116403
 20
692.025513894842
 30
0.0
 10
287.5896445821065
 20
691.6782348284622
 30
0.0
 11
287.798916645587
 21
699.6672711064989
 31
0.0
 11
287.8155168733548
 21
699.6359508438884
 31
0.0
 11
287.8287969958913
 21
699.5442503005571
 31
0.0
 11
287.8386812145646
 21
699.3926928734617
 31
0.0
 11
287.8450802163769
 21
699.1824890746346
 31
0.0
 11
287.8479443224924
 21
698.915516347291
 31
0.0
 11
287.8472571855224
 21
698.5932984851607
 31
0.0
 11
287.8430196359799
 21
698.2185113574526
 31
0.0
 11
287.8352728799509
 21
697.7944286552247
 31
0.0
 11
287.8240611334058
 21
697.3234709049826
 31
0.0
 11
287.8094753138687
 21
696.8095972931824
 31
0.0
 11
287.7916447090888
 21
696.2572550488551
 31
0.0
 11
287.7706710903744
 21
695.6695967623689
 31
0.0
 11
287.7337139875779
 21
694.7329813740294
 31
0.0
 11
287.6907191919522
 21
693.7441894527848
 31
0.0
 11
287.6424210700836
 21
692.7201100039265
 31
0.0
 11
287.5896445821065
 21
691.6782348284622
 31
0.0
  0
ARC
  5
21F
330
1F
100
AcDbEntity
  8
1
  6
Continuous
 62
     7
100
AcDbCircle
 10
90.41066491224547
 20
691.667271106499
 30
0.0
 40
8.0
100
AcDbArc
 50
90.0
 51
180.0
  0
ARC
  5
220
330
1F
100
AcDbEntity
  8
1
  6
Continuous
 62
     7
100
AcDbCircle
 10
76.22845940894075
 20
677.4850656031821
 30
0.0
 40
8.0
100
AcDbArc
 50
90.0
 51
180.0
  0
ARC
  5
221
330
1F
100
AcDbEntity
  8
1
  6
Continuous
 62
     7
100
AcDbCircle
 10
90.41066491224547
 20
453.8637319330647
 30
0.0
 40
8.0
100
AcDbArc
 50
180.0
 51
270.0
  0
ARC
  5
222
330
1F
100
AcDbEntity
  8
1
  6
Continuous
 62
     7
100
AcDbCircle
 10
76.22845940894075
 20
468.0459374363816
 30
0.0
 40
8.0
100
AcDbArc
 50
180.0
 51
270.0
  0
ARC
  5
223
330
1F
100
AcDbEntity
  8
1
  6
Continuous
 62
     7
100
AcDbCircle
 10
173.0388511434653
 20
468.0390848752969
 30
0.0
 40
7.993148496173569
100
AcDbArc
 50
270.0294692607969
 51
0.02946926079778
  0
ARC
  5
224
330
1F
100
AcDbEntity
  8
1
  6
Continuous
 62
     7
100
AcDbCircle
 10
158.8497930790757
 20
453.8637319330647
 30
0.0
 40
8.0
100
AcDbArc
 50
270.0
 51
0.0
  0
ARC
  5
225
330
1F
100
AcDbEntity
  8
1
  6
Continuous
 62
     7
100
AcDbCircle
 10
158.8497930790757
 20
691.667271106499
 30
0.0
 40
8.0
100
AcDbArc
 50
0.0
 51
90.0
  0
ARC
  5
226
330
1F
100
AcDbEntity
  8
1
  6
Continuous
 62
     7
100
AcDbCircle
 10
173.0319985823805
 20
677.4850656031821
 30
0.0
 40
8.0
100
AcDbArc
 50
0.0
 51
90.0
  0
ARC
  5
227
330
1F
100
AcDbEntity
  8
1
  6
Continuous
 62
     7
100
AcDbCircle
 10
282.3802289956435
 20
459.4093526921678
 30
0.0
 40
0.5000000000001347
100
AcDbArc
 50
91.4999999999958
 51
180.0
  0
ARC
  5
228
330
1F
100
AcDbEntity
  8
1
  6
Continuous
 62
     7
100
AcDbCircle
 10
282.3802289956435
 20
686.1216503473959
 30
0.0
 40
0.5
100
AcDbArc
 50
180.0
 51
268.5000000000036
  0
MTEXT
  5
229
330
1F
100
AcDbEntity
  8
1
 62
     7
100
AcDbMText
 10
304.7735320941933
 20
259.3393042033961
 30
0.0
 40
9.0
 41
0.0
 71
     5
 72
     1
  1
1:2
  7
CONVERTER_11
 73
     1
 44
1.32052821128451
  0
MTEXT
  5
22A
330
1F
100
AcDbEntity
  8
1
 62
     7
100
AcDbMText
 10
30.62093071670802
 20
254.2180253618838
 30
0.0
 40
6.0
 41
0.0
 71
     4
 72
     1
  1
Visentin
  7
CONVERTER_11
 73
     1
 44
1.32052821128451
  0
MTEXT
  5
22B
330
1F
100
AcDbEntity
  8
1
 62
     7
100
AcDbMText
 10
30.62093071670802
 20
264.2180253618838
 30
0.0
 40
6.0
 41
0.0
 71
     4
 72
     1
  1
16/09/11
  7
CONVERTER_11
 73
     1
 44
1.32052821128451
  0
MTEXT
  5
22C
330
1F
100
AcDbEntity
  8
1
 62
     7
100
AcDbMText
 10
79.97353209419339
 20
264.218025361884
 30
0.0
 40
9.0
 41
0.0
 71
     4
 72
     1
  1
TM 1125 P\PCOVER FOR 1 MODULE
  7
CONVERTER_11
 73
     1
 44
0.90036014405762
  0
DIMENSION
  5
238
330
1F
100
AcDbEntity
  8
1
100
AcDbDimension
  2
*D3
 10
211.845036675315
 20
700.2655015197635
 30
0.0
 11
204.845036675315
 21
572.7655015197661
 31
0.0
 70
    32
  1
<>
 71
     5
 42
-1.0
 53
90.0
  3
ME10_DIM_10
100
AcDbAlignedDimension
 13
174.6326277208184
 23
445.2655015197687
 33
0.0
 14
174.6326277208184
 24
700.2655015197635
 34
0.0
 50
90.0
100
AcDbRotatedDimension
  0
DIMENSION
  5
244
330
1F
100
AcDbEntity
  8
1
100
AcDbDimension
  2
*D4
 10
270.8802289956436
 20
415.43475082622
 30
0.0
 11
257.2302289956436
 21
422.73475082622
 31
0.0
 70
    32
  1
<>
 71
     5
 42
-1.0
 53
0.00013888888889
  3
ME10_DIM_11
100
AcDbAlignedDimension
 13
295.3802289956436
 23
454.7655015198037
 33
0.0
 14
270.8802289956435
 24
445.2655015198003
 34
0.0
100
AcDbRotatedDimension
  0
DIMENSION
  5
24F
330
1F
100
AcDbEntity
  8
1
100
AcDbDimension
  2
*D5
 10
67.63022899567615
 20
415.43475082622
 30
0.0
 11
124.6302289956617
 21
422.43475082622
 31
0.0
 70
    32
  1
<>
 71
     5
 42
-1.0
 53
0.00013888888889
  3
ME10_DIM_12
100
AcDbAlignedDimension
 13
181.6302289956472
 23
452.2631027945976
 33
0.0
 14
67.63022899567613
 24
452.2631027945976
 34
0.0
100
AcDbRotatedDimension
  0
ENDSEC
  0
SECTION
  2
OBJECTS
  0
DICTIONARY
  5
C
330
0
100
AcDbDictionary
281
     1
  3
ACAD_GROUP
350
D
  3
ACAD_LAYOUT
350
1A
  3
ACAD_MATERIAL
350
3B
  3
ACAD_MLEADERSTYLE
350
252
  3
ACAD_MLINESTYLE
350
17
  3
ACAD_PLOTSETTINGS
350
19
  3
ACAD_PLOTSTYLENAME
350
E
  3
ACAD_VISUALSTYLE
350
2A
  3
AcDbVariableDictionary
350
250
  0
DICTIONARY
  5
D
102
{ACAD_REACTORS
330
C
102
}
330
C
100
AcDbDictionary
281
     1
  0
DICTIONARY
  5
1A
102
{ACAD_REACTORS
330
C
102
}
330
C
100
AcDbDictionary
281
     1
  3
Layout1
350
1E
  3
Layout2
350
26
  3
Model
350
22
  0
DICTIONARY
  5
3B
102
{ACAD_REACTORS
330
C
102
}
330
C
100
AcDbDictionary
281
     1
  3
ByBlock
350
3D
  3
ByLayer
350
3C
  3
Global
350
3E
  0
DICTIONARY
  5
252
102
{ACAD_REACTORS
330
C
102
}
330
C
100
AcDbDictionary
281
     1
  0
DICTIONARY
  5
17
102
{ACAD_REACTORS
330
C
102
}
330
C
100
AcDbDictionary
281
     1
  3
Standard
350
18
  0
DICTIONARY
  5
19
102
{ACAD_REACTORS
330
C
102
}
330
C
100
AcDbDictionary
281
     1
  0
ACDBDICTIONARYWDFLT
  5
E
102
{ACAD_REACTORS
330
C
102
}
330
C
100
AcDbDictionary
281
     1
  3
Normal
350
F
100
AcDbDictionaryWithDefault
340
F
  0
DICTIONARY
  5
2A
102
{ACAD_REACTORS
330
C
102
}
330
C
100
AcDbDictionary
281
     1
  3
2dWireframe
350
2F
  3
3D Hidden
350
31
  3
3dWireframe
350
30
  3
Basic
350
32
  3
Brighten
350
36
  3
ColorChange
350
3A
  3
Conceptual
350
34
  3
Dim
350
35
  3
Facepattern
350
39
  3
Flat
350
2B
  3
FlatWithEdges
350
2C
  3
Gouraud
350
2D
  3
GouraudWithEdges
350
2E
  3
Linepattern
350
38
  3
Realistic
350
33
  3
Thicken
350
37
  0
DICTIONARY
  5
250
102
{ACAD_REACTORS
330
C
102
}
330
C
100
AcDbDictionary
281
     1
  3
DIMASSOC
350
253
  3
HIDETEXT
350
254
  0
LAYOUT
  5
1E
102
{ACAD_REACTORS
330
1A
102
}
330
1A
100
AcDbPlotSettings
  1

  2
none_device
  4

  6

 40
0.0
 41
0.0
 42
0.0
 43
0.0
 44
0.0
 45
0.0
 46
0.0
 47
0.0
 48
0.0
 49
0.0
140
0.0
141
0.0
142
1.0
143
1.0
 70
   688
 72
     0
 73
     0
 74
     5
  7

 75
    16
147
1.0
148
0.0
149
0.0
100
AcDbLayout
  1
Layout1
 70
     1
 71
     1
 10
0.0
 20
0.0
 11
12.0
 21
9.0
 12
0.0
 22
0.0
 32
0.0
 14
1.00000000000000E+20
 24
1.00000000000000E+20
 34
1.00000000000000E+20
 15
-1.00000000000000E+20
 25
-1.00000000000000E+20
 35
-1.00000000000000E+20
146
0.0
 13
0.0
 23
0.0
 33
0.0
 16
1.0
 26
0.0
 36
0.0
 17
0.0
 27
1.0
 37
0.0
 76
     0
330
1B
  0
LAYOUT
  5
26
102
{ACAD_REACTORS
330
1A
102
}
330
1A
100
AcDbPlotSettings
  1

  2
none_device
  4

  6

 40
0.0
 41
0.0
 42
0.0
 43
0.0
 44
0.0
 45
0.0
 46
0.0
 47
0.0
 48
0.0
 49
0.0
140
0.0
141
0.0
142
1.0
143
1.0
 70
   688
 72
     0
 73
     0
 74
     5
  7

 75
    16
147
1.0
148
0.0
149
0.0
100
AcDbLayout
  1
Layout2
 70
     1
 71
     2
 10
0.0
 20
0.0
 11
0.0
 21
0.0
 12
0.0
 22
0.0
 32
0.0
 14
0.0
 24
0.0
 34
0.0
 15
0.0
 25
0.0
 35
0.0
146
0.0
 13
0.0
 23
0.0
 33
0.0
 16
1.0
 26
0.0
 36
0.0
 17
0.0
 27
1.0
 37
0.0
 76
     0
330
23
  0
LAYOUT
  5
22
102
{ACAD_REACTORS
330
1A
102
}
330
1A
100
AcDbPlotSettings
  1

  2
none_device
  4

  6

 40
0.0
 41
0.0
 42
0.0
 43
0.0
 44
0.0
 45
0.0
 46
0.0
 47
0.0
 48
0.0
 49
0.0
140
0.0
141
0.0
142
1.0
143
1.0
 70
  1712
 72
     0
 73
     0
 74
     0
  7

 75
     0
147
1.0
148
0.0
149
0.0
100
AcDbLayout
  1
Model
 70
     1
 71
     0
 10
0.0
 20
0.0
 11
12.0
 21
9.0
 12
0.0
 22
0.0
 32
0.0
 14
-34.57906928329214
 24
239.218025361884
 34
0.0
 15
385.420930716708
 25
833.2180253618842
 35
0.0
146
0.0
 13
0.0
 23
0.0
 33
0.0
 16
1.0
 26
0.0
 36
0.0
 17
0.0
 27
1.0
 37
0.0
 76
     0
330
1F
331
29
  0
MATERIAL
  5
3D
102
{ACAD_REACTORS
330
3B
102
}
102
{ACAD_XDICTIONARY
360
277
102
}
330
3B
100
AcDbMaterial
  1
ByBlock
  0
MATERIAL
  5
3C
102
{ACAD_REACTORS
330
3B
102
}
102
{ACAD_XDICTIONARY
360
275
102
}
330
3B
100
AcDbMaterial
  1
ByLayer
  0
MATERIAL
  5
3E
102
{ACAD_REACTORS
330
3B
102
}
102
{ACAD_XDICTIONARY
360
279
102
}
330
3B
100
AcDbMaterial
  1
Global
  0
MLINESTYLE
  5
18
102
{ACAD_REACTORS
330
17
102
}
330
17
100
AcDbMlineStyle
  2
Standard
 70
     0
  3

 62
   256
 51
90.0
 52
90.0
 71
     2
 49
0.5
 62
   256
  6
BYLAYER
 49
-0.5
 62
   256
  6
BYLAYER
  0
ACDBPLACEHOLDER
  5
F
102
{ACAD_REACTORS
330
E
102
}
330
E
  0
VISUALSTYLE
  5
2F
102
{ACAD_REACTORS
330
2A
102
}
102
{ACAD_XDICTIONARY
360
25D
102
}
330
2A
100
AcDbVisualStyle
  2
2dWireframe
 70
     4
 71
     0
 72
     2
 73
     0
 90
        0
 40
-0.6
 41
-30.0
 62
     5
 63
     7
 74
     1
 91
        4
 64
     7
 65
   257
 75
     1
175
     1
 42
1.0
 92
        0
 66
   257
 43
1.0
 76
     1
 77
     6
 78
     2
 67
     7
 79
     5
170
     0
171
     0
290
     0
174
     0
 93
        1
 44
0.0
173
     0
291
     0
 45
0.0
1001
ACAD
1000
AcDbSavedByObjectVersion
1070
     0
  0
VISUALSTYLE
  5
31
102
{ACAD_REACTORS
330
2A
102
}
102
{ACAD_XDICTIONARY
360
261
102
}
330
2A
100
AcDbVisualStyle
  2
3D Hidden
 70
     6
 71
     1
 72
     2
 73
     2
 90
        0
 40
-0.6
 41
-30.0
 62
     5
 63
     7
 74
     2
 91
        2
 64
     7
 65
   257
 75
     2
175
     1
 42
40.0
 92
        0
 66
   257
 43
1.0
 76
     1
 77
     6
 78
     2
 67
     7
 79
     3
170
     0
171
     0
290
     0
174
     0
 93
        1
 44
0.0
173
     0
291
     0
 45
0.0
1001
ACAD
1000
AcDbSavedByObjectVersion
1070
     0
  0
VISUALSTYLE
  5
30
102
{ACAD_REACTORS
330
2A
102
}
102
{ACAD_XDICTIONARY
360
25F
102
}
330
2A
100
AcDbVisualStyle
  2
3dWireframe
 70
     5
 71
     0
 72
     2
 73
     0
 90
        0
 40
-0.6
 41
-30.0
 62
     5
 63
     7
 74
     1
 91
        4
 64
     7
 65
   257
 75
     1
175
     1
 42
1.0
 92
        0
 66
   257
 43
1.0
 76
     1
 77
     6
 78
     2
 67
     7
 79
     5
170
     0
171
     0
290
     0
174
     0
 93
        1
 44
0.0
173
     0
291
     0
 45
0.0
1001
ACAD
1000
AcDbSavedByObjectVersion
1070
     0
  0
VISUALSTYLE
  5
32
102
{ACAD_REACTORS
330
2A
102
}
102
{ACAD_XDICTIONARY
360
263
102
}
330
2A
100
AcDbVisualStyle
  2
Basic
 70
     7
 71
     1
 72
     0
 73
     1
 90
        0
 40
-0.6
 41
-30.0
 62
     5
 63
     7
 74
     0
 91
        4
 64
     7
 65
   257
 75
     1
175
     1
 42
1.0
 92
        8
 66
     7
 43
1.0
 76
     1
 77
     6
 78
     2
 67
     7
 79
     5
170
     0
171
     0
290
     0
174
     0
 93
        1
 44
0.0
173
     0
291
     1
 45
0.0
1001
ACAD
1000
AcDbSavedByObjectVersion
1070
     0
  0
VISUALSTYLE
  5
36
102
{ACAD_REACTORS
330
2A
102
}
102
{ACAD_XDICTIONARY
360
26B
102
}
330
2A
100
AcDbVisualStyle
  2
Brighten
 70
    12
 71
     2
 72
     2
 73
     0
 90
        0
 40
-0.6
 41
-30.0
 62
     5
 63
     7
 74
     1
 91
        4
 64
     7
 65
   257
 75
     1
175
     1
 42
1.0
 92
        8
 66
     7
 43
1.0
 76
     1
 77
     6
 78
     2
 67
     7
 79
     5
170
     0
171
     0
290
     0
174
     0
 93
        1
 44
50.0
173
     0
291
     1
 45
0.0
1001
ACAD
1000
AcDbSavedByObjectVersion
1070
     0
  0
VISUALSTYLE
  5
3A
102
{ACAD_REACTORS
330
2A
102
}
102
{ACAD_XDICTIONARY
360
273
102
}
330
2A
100
AcDbVisualStyle
  2
ColorChange
 70
    16
 71
     2
 72
     2
 73
     3
 90
        0
 40
-0.6
 41
-30.0
 62
     5
 63
     8
 74
     1
 91
        4
 64
     7
 65
   257
 75
     1
175
     1
 42
1.0
 92
        8
 66
     8
 43
1.0
 76
     1
 77
     6
 78
     2
 67
     7
 79
     5
170
     0
171
     0
290
     0
174
     0
 93
        1
 44
0.0
173
     0
291
     1
 45
0.0
1001
ACAD
1000
AcDbSavedByObjectVersion
1070
     0
  0
VISUALSTYLE
  5
34
102
{ACAD_REACTORS
330
2A
102
}
102
{ACAD_XDICTIONARY
360
267
102
}
330
2A
100
AcDbVisualStyle
  2
Conceptual
 70
     9
 71
     3
 72
     2
 73
     0
 90
        0
 40
-0.6
 41
-30.0
 62
     5
 63
     7
 74
     2
 91
        2
 64
     7
 65
   257
 75
     1
175
     1
 42
40.0
 92
        8
 66
     7
 43
1.0
 76
     1
 77
     6
 78
     2
 67
     7
 79
     3
170
     0
171
     0
290
     0
174
     0
 93
        1
 44
0.0
173
     0
291
     0
 45
0.0
1001
ACAD
1000
AcDbSavedByObjectVersion
1070
     0
  0
VISUALSTYLE
  5
35
102
{ACAD_REACTORS
330
2A
102
}
102
{ACAD_XDICTIONARY
360
269
102
}
330
2A
100
AcDbVisualStyle
  2
Dim
 70
    11
 71
     2
 72
     2
 73
     0
 90
        0
 40
-0.6
 41
-30.0
 62
     5
 63
     7
 74
     1
 91
        4
 64
     7
 65
   257
 75
     1
175
     1
 42
1.0
 92
        8
 66
     7
 43
1.0
 76
     1
 77
     6
 78
     2
 67
     7
 79
     5
170
     0
171
     0
290
     0
174
     0
 93
        1
 44
-50.0
173
     0
291
     1
 45
0.0
1001
ACAD
1000
AcDbSavedByObjectVersion
1070
     0
  0
VISUALSTYLE
  5
39
102
{ACAD_REACTORS
330
2A
102
}
102
{ACAD_XDICTIONARY
360
271
102
}
330
2A
100
AcDbVisualStyle
  2
Facepattern
 70
    15
 71
     2
 72
     2
 73
     0
 90
        0
 40
-0.6
 41
-30.0
 62
     5
 63
     7
 74
     1
 91
        4
 64
     7
 65
   257
 75
     1
175
     1
 42
1.0
 92
        8
 66
     7
 43
1.0
 76
     1
 77
     6
 78
     2
 67
     7
 79
     5
170
     0
171
     0
290
     0
174
     0
 93
        1
 44
0.0
173
     0
291
     1
 45
0.0
1001
ACAD
1000
AcDbSavedByObjectVersion
1070
     0
  0
VISUALSTYLE
  5
2B
102
{ACAD_REACTORS
330
2A
102
}
102
{ACAD_XDICTIONARY
360
255
102
}
330
2A
100
AcDbVisualStyle
  2
Flat
 70
     0
 71
     2
 72
     1
 73
     1
 90
        2
 40
-0.6
 41
30.0
 62
     5
 63
     7
 74
     0
 91
        4
 64
     7
 65
   257
 75
     1
175
     1
 42
1.0
 92
        8
 66
     7
 43
1.0
 76
     1
 77
     6
 78
     2
 67
     7
 79
     5
170
     0
171
     0
290
     0
174
     0
 93
       13
 44
0.0
173
     0
291
     1
 45
0.0
1001
ACAD
1000
AcDbSavedByObjectVersion
1070
     0
  0
VISUALSTYLE
  5
2C
102
{ACAD_REACTORS
330
2A
102
}
102
{ACAD_XDICTIONARY
360
257
102
}
330
2A
100
AcDbVisualStyle
  2
FlatWithEdges
 70
     1
 71
     2
 72
     1
 73
     1
 90
        2
 40
-0.6
 41
30.0
 62
     5
 63
     7
 74
     1
 91
        4
 64
     7
 65
   257
 75
     1
175
     1
 42
1.0
 92
        0
 66
   257
 43
1.0
 76
     1
 77
     6
 78
     2
 67
     7
 79
     5
170
     0
171
     0
290
     0
174
     0
 93
       13
 44
0.0
173
     0
291
     1
 45
0.0
1001
ACAD
1000
AcDbSavedByObjectVersion
1070
     0
  0
VISUALSTYLE
  5
2D
102
{ACAD_REACTORS
330
2A
102
}
102
{ACAD_XDICTIONARY
360
259
102
}
330
2A
100
AcDbVisualStyle
  2
Gouraud
 70
     2
 71
     2
 72
     2
 73
     1
 90
        2
 40
-0.6
 41
30.0
 62
     5
 63
     7
 74
     0
 91
        4
 64
     7
 65
   257
 75
     1
175
     1
 42
1.0
 92
        0
 66
     7
 43
1.0
 76
     1
 77
     6
 78
     2
 67
     7
 79
     5
170
     0
171
     0
290
     0
174
     0
 93
       13
 44
0.0
173
     0
291
     1
 45
0.0
1001
ACAD
1000
AcDbSavedByObjectVersion
1070
     0
  0
VISUALSTYLE
  5
2E
102
{ACAD_REACTORS
330
2A
102
}
102
{ACAD_XDICTIONARY
360
25B
102
}
330
2A
100
AcDbVisualStyle
  2
GouraudWithEdges
 70
     3
 71
     2
 72
     2
 73
     1
 90
        2
 40
-0.6
 41
30.0
 62
     5
 63
     7
 74
     1
 91
        4
 64
     7
 65
   257
 75
     1
175
     1
 42
1.0
 92
        0
 66
   257
 43
1.0
 76
     1
 77
     6
 78
     2
 67
     7
 79
     5
170
     0
171
     0
290
     0
174
     0
 93
       13
 44
0.0
173
     0
291
     1
 45
0.0
1001
ACAD
1000
AcDbSavedByObjectVersion
1070
     0
  0
VISUALSTYLE
  5
38
102
{ACAD_REACTORS
330
2A
102
}
102
{ACAD_XDICTIONARY
360
26F
102
}
330
2A
100
AcDbVisualStyle
  2
Linepattern
 70
    14
 71
     2
 72
     2
 73
     0
 90
        0
 40
-0.6
 41
-30.0
 62
     5
 63
     7
 74
     1
 91
        4
 64
     7
 65
   257
 75
     7
175
     7
 42
1.0
 92
        8
 66
     7
 43
1.0
 76
     1
 77
     6
 78
     2
 67
     7
 79
     5
170
     0
171
     0
290
     0
174
     0
 93
        1
 44
0.0
173
     0
291
     1
 45
0.0
1001
ACAD
1000
AcDbSavedByObjectVersion
1070
     0
  0
VISUALSTYLE
  5
33
102
{ACAD_REACTORS
330
2A
102
}
102
{ACAD_XDICTIONARY
360
265
102
}
330
2A
100
AcDbVisualStyle
  2
Realistic
 70
     8
 71
     2
 72
     2
 73
     0
 90
        0
 40
-0.6
 41
-30.0
 62
     5
 63
     7
 74
     1
 91
        0
 64
     7
 65
   257
 75
     1
175
     1
 42
1.0
 92
        8
 66
     8
 43
1.0
 76
     1
 77
     6
 78
     2
 67
     7
 79
     5
170
     0
171
     0
290
     0
174
     0
 93
       13
 44
0.0
173
     0
291
     0
 45
0.0
1001
ACAD
1000
AcDbSavedByObjectVersion
1070
     0
  0
VISUALSTYLE
  5
37
102
{ACAD_REACTORS
330
2A
102
}
102
{ACAD_XDICTIONARY
360
26D
102
}
330
2A
100
AcDbVisualStyle
  2
Thicken
 70
    13
 71
     2
 72
     2
 73
     0
 90
        0
 40
-0.6
 41
-30.0
 62
     5
 63
     7
 74
     1
 91
        4
 64
     7
 65
   257
 75
     1
175
     1
 42
1.0
 92
       12
 66
     7
 43
1.0
 76
     1
 77
     6
 78
     2
 67
     7
 79
     5
170
     0
171
     0
290
     0
174
     0
 93
        1
 44
0.0
173
     0
291
     1
 45
0.0
1001
ACAD
1000
AcDbSavedByObjectVersion
1070
     0
  0
DICTIONARYVAR
  5
253
102
{ACAD_REACTORS
330
250
102
}
330
250
100
DictionaryVariables
280
     0
  1
2
  0
DICTIONARYVAR
  5
254
102
{ACAD_REACTORS
330
250
102
}
330
250
100
DictionaryVariables
280
     0
  1
1
  0
DICTIONARY
  5
277
330
3D
100
AcDbDictionary
280
     1
281
     1
  3
ACAD_XREC_ROUNDTRIP
360
278
  0
DICTIONARY
  5
275
330
3C
100
AcDbDictionary
280
     1
281
     1
  3
ACAD_XREC_ROUNDTRIP
360
276
  0
DICTIONARY
  5
279
330
3E
100
AcDbDictionary
280
     1
281
     1
  3
ACAD_XREC_ROUNDTRIP
360
27A
  0
DICTIONARY
  5
25D
330
2F
100
AcDbDictionary
280
     1
281
     1
  3
ACAD_XREC_ROUNDTRIP
360
25E
  0
DICTIONARY
  5
261
330
31
100
AcDbDictionary
280
     1
281
     1
  3
ACAD_XREC_ROUNDTRIP
360
262
  0
DICTIONARY
  5
25F
330
30
100
AcDbDictionary
280
     1
281
     1
  3
ACAD_XREC_ROUNDTRIP
360
260
  0
DICTIONARY
  5
263
330
32
100
AcDbDictionary
280
     1
281
     1
  3
ACAD_XREC_ROUNDTRIP
360
264
  0
DICTIONARY
  5
26B
330
36
100
AcDbDictionary
280
     1
281
     1
  3
ACAD_XREC_ROUNDTRIP
360
26C
  0
DICTIONARY
  5
273
330
3A
100
AcDbDictionary
280
     1
281
     1
  3
ACAD_XREC_ROUNDTRIP
360
274
  0
DICTIONARY
  5
267
330
34
100
AcDbDictionary
280
     1
281
     1
  3
ACAD_XREC_ROUNDTRIP
360
268
  0
DICTIONARY
  5
269
330
35
100
AcDbDictionary
280
     1
281
     1
  3
ACAD_XREC_ROUNDTRIP
360
26A
  0
DICTIONARY
  5
271
330
39
100
AcDbDictionary
280
     1
281
     1
  3
ACAD_XREC_ROUNDTRIP
360
272
  0
DICTIONARY
  5
255
330
2B
100
AcDbDictionary
280
     1
281
     1
  3
ACAD_XREC_ROUNDTRIP
360
256
  0
DICTIONARY
  5
257
330
2C
100
AcDbDictionary
280
     1
281
     1
  3
ACAD_XREC_ROUNDTRIP
360
258
  0
DICTIONARY
  5
259
330
2D
100
AcDbDictionary
280
     1
281
     1
  3
ACAD_XREC_ROUNDTRIP
360
25A
  0
DICTIONARY
  5
25B
330
2E
100
AcDbDictionary
280
     1
281
     1
  3
ACAD_XREC_ROUNDTRIP
360
25C
  0
DICTIONARY
  5
26F
330
38
100
AcDbDictionary
280
     1
281
     1
  3
ACAD_XREC_ROUNDTRIP
360
270
  0
DICTIONARY
  5
265
330
33
100
AcDbDictionary
280
     1
281
     1
  3
ACAD_XREC_ROUNDTRIP
360
266
  0
DICTIONARY
  5
26D
330
37
100
AcDbDictionary
280
     1
281
     1
  3
ACAD_XREC_ROUNDTRIP
360
26E
  0
XRECORD
  5
278
102
{ACAD_REACTORS
330
277
102
}
330
277
100
AcDbXrecord
280
     1
102
MATERIAL
148
0.0
149
0.0
149
0.0
 93
        0
 94
      127
282
     0
 72
     1
 77
     1
171
     1
175
     1
179
     1
273
     0
  0
XRECORD
  5
276
102
{ACAD_REACTORS
330
275
102
}
330
275
100
AcDbXrecord
280
     1
102
MATERIAL
148
0.0
149
0.0
149
0.0
 93
        0
 94
      127
282
     0
 72
     1
 77
     1
171
     1
175
     1
179
     1
273
     0
  0
XRECORD
  5
27A
102
{ACAD_REACTORS
330
279
102
}
330
279
100
AcDbXrecord
280
     1
102
MATERIAL
148
0.0
149
0.0
149
0.0
 93
        0
 94
      127
282
     0
 72
     1
 77
     1
171
     1
175
     1
179
     1
273
     0
  0
XRECORD
  5
25E
102
{ACAD_REACTORS
330
25D
102
}
330
25D
100
AcDbXrecord
280
     1
102
RTVSPropertyOp0
 70
     1
102
RTVSPropertyOp1
 70
     1
102
RTVSPropertyOp2
 70
     1
102
RTVSPropertyOp3
 70
     1
102
RTVSPropertyOp4
 70
     1
102
RTVSPropertyOp5
 70
     1
102
RTVSPropertyOp6
 70
     1
102
RTVSPropertyOp7
 70
     1
102
RTVSPropertyOp8
 70
     1
102
RTVSPropertyOp9
 70
     1
102
RTVSPropertyOp10
 70
     1
102
RTVSPropertyOp11
 70
     1
102
RTVSPropertyOp12
 70
     1
102
RTVSPropertyOp13
 70
     1
102
RTVSPropertyOp14
 70
     1
102
RTVSPropertyOp15
 70
     1
102
RTVSPropertyOp16
 70
     1
102
RTVSPropertyOp17
 70
     1
102
RTVSPropertyOp18
 70
     1
102
RTVSPropertyOp19
 70
     1
102
RTVSPropertyOp20
 70
     1
102
RTVSPropertyOp21
 70
     1
102
RTVSPropertyOp22
 70
     1
102
RTVSPropertyOp23
 70
     1
102
RTVSPropertyOp24
 70
     1
102
RTVSPropertyOp25
 70
     1
102
RTVSPropertyOp26
 70
     1
102
RTVSPropertyOp27
 70
     1
102
RTVSPropertyOp28
 70
     1
102
RTVSPropertyOp29
 70
     1
102
RTVSPropertyOp30
 70
     1
102
RTVSPropertyOp31
 70
     1
102
RTVSPropertyOp32
 70
     1
  0
XRECORD
  5
262
102
{ACAD_REACTORS
330
261
102
}
330
261
100
AcDbXrecord
280
     1
102
RTVSPropertyOp0
 70
     1
102
RTVSPropertyOp1
 70
     1
102
RTVSPropertyOp2
 70
     1
102
RTVSPropertyOp3
 70
     1
102
RTVSPropertyOp4
 70
     1
102
RTVSPropertyOp5
 70
     1
102
RTVSPropertyOp6
 70
     1
102
RTVSPropertyOp7
 70
     1
102
RTVSPropertyOp8
 70
     1
102
RTVSPropertyOp9
 70
     1
102
RTVSPropertyOp10
 70
     1
102
RTVSPropertyOp11
 70
     1
102
RTVSPropertyOp12
 70
     1
102
RTVSPropertyOp13
 70
     1
102
RTVSPropertyOp14
 70
     1
102
RTVSPropertyOp15
 70
     1
102
RTVSPropertyOp16
 70
     1
102
RTVSPropertyOp17
 70
     1
102
RTVSPropertyOp18
 70
     1
102
RTVSPropertyOp19
 70
     1
102
RTVSPropertyOp20
 70
     1
102
RTVSPropertyOp21
 70
     1
102
RTVSPropertyOp22
 70
     1
102
RTVSPropertyOp23
 70
     1
102
RTVSPropertyOp24
 70
     1
102
RTVSPropertyOp25
 70
     1
102
RTVSPropertyOp26
 70
     1
102
RTVSPropertyOp27
 70
     1
102
RTVSPropertyOp28
 70
     1
102
RTVSPropertyOp29
 70
     1
102
RTVSPropertyOp30
 70
     1
102
RTVSPropertyOp31
 70
     1
102
RTVSPropertyOp32
 70
     1
  0
XRECORD
  5
260
102
{ACAD_REACTORS
330
25F
102
}
330
25F
100
AcDbXrecord
280
     1
102
RTVSPropertyOp0
 70
     1
102
RTVSPropertyOp1
 70
     1
102
RTVSPropertyOp2
 70
     1
102
RTVSPropertyOp3
 70
     1
102
RTVSPropertyOp4
 70
     1
102
RTVSPropertyOp5
 70
     1
102
RTVSPropertyOp6
 70
     1
102
RTVSPropertyOp7
 70
     1
102
RTVSPropertyOp8
 70
     1
102
RTVSPropertyOp9
 70
     1
102
RTVSPropertyOp10
 70
     1
102
RTVSPropertyOp11
 70
     1
102
RTVSPropertyOp12
 70
     1
102
RTVSPropertyOp13
 70
     1
102
RTVSPropertyOp14
 70
     1
102
RTVSPropertyOp15
 70
     1
102
RTVSPropertyOp16
 70
     1
102
RTVSPropertyOp17
 70
     1
102
RTVSPropertyOp18
 70
     1
102
RTVSPropertyOp19
 70
     1
102
RTVSPropertyOp20
 70
     1
102
RTVSPropertyOp21
 70
     1
102
RTVSPropertyOp22
 70
     1
102
RTVSPropertyOp23
 70
     1
102
RTVSPropertyOp24
 70
     1
102
RTVSPropertyOp25
 70
     1
102
RTVSPropertyOp26
 70
     1
102
RTVSPropertyOp27
 70
     1
102
RTVSPropertyOp28
 70
     1
102
RTVSPropertyOp29
 70
     1
102
RTVSPropertyOp30
 70
     1
102
RTVSPropertyOp31
 70
     1
102
RTVSPropertyOp32
 70
     1
  0
XRECORD
  5
264
102
{ACAD_REACTORS
330
263
102
}
330
263
100
AcDbXrecord
280
     1
102
RTVSPropertyOp0
 70
     1
102
RTVSPropertyOp1
 70
     1
102
RTVSPropertyOp2
 70
     1
102
RTVSPropertyOp3
 70
     1
102
RTVSPropertyOp4
 70
     1
102
RTVSPropertyOp5
 70
     1
102
RTVSPropertyOp6
 70
     1
102
RTVSPropertyOp7
 70
     1
102
RTVSPropertyOp8
 70
     1
102
RTVSPropertyOp9
 70
     1
102
RTVSPropertyOp10
 70
     1
102
RTVSPropertyOp11
 70
     1
102
RTVSPropertyOp12
 70
     1
102
RTVSPropertyOp13
 70
     1
102
RTVSPropertyOp14
 70
     1
102
RTVSPropertyOp15
 70
     1
102
RTVSPropertyOp16
 70
     1
102
RTVSPropertyOp17
 70
     1
102
RTVSPropertyOp18
 70
     1
102
RTVSPropertyOp19
 70
     1
102
RTVSPropertyOp20
 70
     1
102
RTVSPropertyOp21
 70
     1
102
RTVSPropertyOp22
 70
     1
102
RTVSPropertyOp23
 70
     1
102
RTVSPropertyOp24
 70
     1
102
RTVSPropertyOp25
 70
     1
102
RTVSPropertyOp26
 70
     1
102
RTVSPropertyOp27
 70
     1
102
RTVSPropertyOp28
 70
     1
102
RTVSPropertyOp29
 70
     1
102
RTVSPropertyOp30
 70
     1
102
RTVSPropertyOp31
 70
     1
102
RTVSPropertyOp32
 70
     1
  0
XRECORD
  5
26C
102
{ACAD_REACTORS
330
26B
102
}
330
26B
100
AcDbXrecord
280
     1
102
RTVSPropertyOp0
 70
     1
102
RTVSPropertyOp1
 70
     1
102
RTVSPropertyOp2
 70
     1
102
RTVSPropertyOp3
 70
     1
102
RTVSPropertyOp4
 70
     1
102
RTVSPropertyOp5
 70
     1
102
RTVSPropertyOp6
 70
     1
102
RTVSPropertyOp7
 70
     1
102
RTVSPropertyOp8
 70
     1
102
RTVSPropertyOp9
 70
     1
102
RTVSPropertyOp10
 70
     1
102
RTVSPropertyOp11
 70
     1
102
RTVSPropertyOp12
 70
     1
102
RTVSPropertyOp13
 70
     1
102
RTVSPropertyOp14
 70
     1
102
RTVSPropertyOp15
 70
     1
102
RTVSPropertyOp16
 70
     1
102
RTVSPropertyOp17
 70
     1
102
RTVSPropertyOp18
 70
     1
102
RTVSPropertyOp19
 70
     1
102
RTVSPropertyOp20
 70
     1
102
RTVSPropertyOp21
 70
     1
102
RTVSPropertyOp22
 70
     1
102
RTVSPropertyOp23
 70
     1
102
RTVSPropertyOp24
 70
     1
102
RTVSPropertyOp25
 70
     1
102
RTVSPropertyOp26
 70
     1
102
RTVSPropertyOp27
 70
     1
102
RTVSPropertyOp28
 70
     1
102
RTVSPropertyOp29
 70
     1
102
RTVSPropertyOp30
 70
     1
102
RTVSPropertyOp31
 70
     1
102
RTVSPropertyOp32
 70
     1
  0
XRECORD
  5
274
102
{ACAD_REACTORS
330
273
102
}
330
273
100
AcDbXrecord
280
     1
102
RTVSPropertyOp0
 70
     1
102
RTVSPropertyOp1
 70
     1
102
RTVSPropertyOp2
 70
     1
102
RTVSPropertyOp3
 70
     1
102
RTVSPropertyOp4
 70
     1
102
RTVSPropertyOp5
 70
     1
102
RTVSPropertyOp6
 70
     1
102
RTVSPropertyOp7
 70
     1
102
RTVSPropertyOp8
 70
     1
102
RTVSPropertyOp9
 70
     1
102
RTVSPropertyOp10
 70
     1
102
RTVSPropertyOp11
 70
     1
102
RTVSPropertyOp12
 70
     1
102
RTVSPropertyOp13
 70
     1
102
RTVSPropertyOp14
 70
     1
102
RTVSPropertyOp15
 70
     1
102
RTVSPropertyOp16
 70
     1
102
RTVSPropertyOp17
 70
     1
102
RTVSPropertyOp18
 70
     1
102
RTVSPropertyOp19
 70
     1
102
RTVSPropertyOp20
 70
     1
102
RTVSPropertyOp21
 70
     1
102
RTVSPropertyOp22
 70
     1
102
RTVSPropertyOp23
 70
     1
102
RTVSPropertyOp24
 70
     1
102
RTVSPropertyOp25
 70
     1
102
RTVSPropertyOp26
 70
     1
102
RTVSPropertyOp27
 70
     1
102
RTVSPropertyOp28
 70
     1
102
RTVSPropertyOp29
 70
     1
102
RTVSPropertyOp30
 70
     1
102
RTVSPropertyOp31
 70
     1
102
RTVSPropertyOp32
 70
     1
  0
XRECORD
  5
268
102
{ACAD_REACTORS
330
267
102
}
330
267
100
AcDbXrecord
280
     1
102
RTVSPropertyOp0
 70
     1
102
RTVSPropertyOp1
 70
     1
102
RTVSPropertyOp2
 70
     1
102
RTVSPropertyOp3
 70
     1
102
RTVSPropertyOp4
 70
     1
102
RTVSPropertyOp5
 70
     1
102
RTVSPropertyOp6
 70
     1
102
RTVSPropertyOp7
 70
     1
102
RTVSPropertyOp8
 70
     1
102
RTVSPropertyOp9
 70
     1
102
RTVSPropertyOp10
 70
     1
102
RTVSPropertyOp11
 70
     1
102
RTVSPropertyOp12
 70
     1
102
RTVSPropertyOp13
 70
     1
102
RTVSPropertyOp14
 70
     1
102
RTVSPropertyOp15
 70
     1
102
RTVSPropertyOp16
 70
     1
102
RTVSPropertyOp17
 70
     1
102
RTVSPropertyOp18
 70
     1
102
RTVSPropertyOp19
 70
     1
102
RTVSPropertyOp20
 70
     1
102
RTVSPropertyOp21
 70
     1
102
RTVSPropertyOp22
 70
     1
102
RTVSPropertyOp23
 70
     1
102
RTVSPropertyOp24
 70
     1
102
RTVSPropertyOp25
 70
     1
102
RTVSPropertyOp26
 70
     1
102
RTVSPropertyOp27
 70
     1
102
RTVSPropertyOp28
 70
     1
102
RTVSPropertyOp29
 70
     1
102
RTVSPropertyOp30
 70
     1
102
RTVSPropertyOp31
 70
     1
102
RTVSPropertyOp32
 70
     1
  0
XRECORD
  5
26A
102
{ACAD_REACTORS
330
269
102
}
330
269
100
AcDbXrecord
280
     1
102
RTVSPropertyOp0
 70
     1
102
RTVSPropertyOp1
 70
     1
102
RTVSPropertyOp2
 70
     1
102
RTVSPropertyOp3
 70
     1
102
RTVSPropertyOp4
 70
     1
102
RTVSPropertyOp5
 70
     1
102
RTVSPropertyOp6
 70
     1
102
RTVSPropertyOp7
 70
     1
102
RTVSPropertyOp8
 70
     1
102
RTVSPropertyOp9
 70
     1
102
RTVSPropertyOp10
 70
     1
102
RTVSPropertyOp11
 70
     1
102
RTVSPropertyOp12
 70
     1
102
RTVSPropertyOp13
 70
     1
102
RTVSPropertyOp14
 70
     1
102
RTVSPropertyOp15
 70
     1
102
RTVSPropertyOp16
 70
     1
102
RTVSPropertyOp17
 70
     1
102
RTVSPropertyOp18
 70
     1
102
RTVSPropertyOp19
 70
     1
102
RTVSPropertyOp20
 70
     1
102
RTVSPropertyOp21
 70
     1
102
RTVSPropertyOp22
 70
     1
102
RTVSPropertyOp23
 70
     1
102
RTVSPropertyOp24
 70
     1
102
RTVSPropertyOp25
 70
     1
102
RTVSPropertyOp26
 70
     1
102
RTVSPropertyOp27
 70
     1
102
RTVSPropertyOp28
 70
     1
102
RTVSPropertyOp29
 70
     1
102
RTVSPropertyOp30
 70
     1
102
RTVSPropertyOp31
 70
     1
102
RTVSPropertyOp32
 70
     1
  0
XRECORD
  5
272
102
{ACAD_REACTORS
330
271
102
}
330
271
100
AcDbXrecord
280
     1
102
RTVSPropertyOp0
 70
     1
102
RTVSPropertyOp1
 70
     1
102
RTVSPropertyOp2
 70
     1
102
RTVSPropertyOp3
 70
     1
102
RTVSPropertyOp4
 70
     1
102
RTVSPropertyOp5
 70
     1
102
RTVSPropertyOp6
 70
     1
102
RTVSPropertyOp7
 70
     1
102
RTVSPropertyOp8
 70
     1
102
RTVSPropertyOp9
 70
     1
102
RTVSPropertyOp10
 70
     1
102
RTVSPropertyOp11
 70
     1
102
RTVSPropertyOp12
 70
     1
102
RTVSPropertyOp13
 70
     1
102
RTVSPropertyOp14
 70
     1
102
RTVSPropertyOp15
 70
     1
102
RTVSPropertyOp16
 70
     1
102
RTVSPropertyOp17
 70
     1
102
RTVSPropertyOp18
 70
     1
102
RTVSPropertyOp19
 70
     1
102
RTVSPropertyOp20
 70
     1
102
RTVSPropertyOp21
 70
     1
102
RTVSPropertyOp22
 70
     1
102
RTVSPropertyOp23
 70
     1
102
RTVSPropertyOp24
 70
     1
102
RTVSPropertyOp25
 70
     1
102
RTVSPropertyOp26
 70
     1
102
RTVSPropertyOp27
 70
     1
102
RTVSPropertyOp28
 70
     1
102
RTVSPropertyOp29
 70
     1
102
RTVSPropertyOp30
 70
     1
102
RTVSPropertyOp31
 70
     1
102
RTVSPropertyOp32
 70
     1
  0
XRECORD
  5
256
102
{ACAD_REACTORS
330
255
102
}
330
255
100
AcDbXrecord
280
     1
102
RTVSPropertyOp0
 70
     1
102
RTVSPropertyOp1
 70
     1
102
RTVSPropertyOp2
 70
     1
102
RTVSPropertyOp3
 70
     1
102
RTVSPropertyOp4
 70
     1
102
RTVSPropertyOp5
 70
     1
102
RTVSPropertyOp6
 70
     1
102
RTVSPropertyOp7
 70
     1
102
RTVSPropertyOp8
 70
     1
102
RTVSPropertyOp9
 70
     1
102
RTVSPropertyOp10
 70
     1
102
RTVSPropertyOp11
 70
     1
102
RTVSPropertyOp12
 70
     1
102
RTVSPropertyOp13
 70
     1
102
RTVSPropertyOp14
 70
     1
102
RTVSPropertyOp15
 70
     1
102
RTVSPropertyOp16
 70
     1
102
RTVSPropertyOp17
 70
     1
102
RTVSPropertyOp18
 70
     1
102
RTVSPropertyOp19
 70
     1
102
RTVSPropertyOp20
 70
     1
102
RTVSPropertyOp21
 70
     1
102
RTVSPropertyOp22
 70
     1
102
RTVSPropertyOp23
 70
     1
102
RTVSPropertyOp24
 70
     1
102
RTVSPropertyOp25
 70
     1
102
RTVSPropertyOp26
 70
     1
102
RTVSPropertyOp27
 70
     1
102
RTVSPropertyOp28
 70
     1
102
RTVSPropertyOp29
 70
     1
102
RTVSPropertyOp30
 70
     1
102
RTVSPropertyOp31
 70
     1
102
RTVSPropertyOp32
 70
     1
  0
XRECORD
  5
258
102
{ACAD_REACTORS
330
257
102
}
330
257
100
AcDbXrecord
280
     1
102
RTVSPropertyOp0
 70
     1
102
RTVSPropertyOp1
 70
     1
102
RTVSPropertyOp2
 70
     1
102
RTVSPropertyOp3
 70
     1
102
RTVSPropertyOp4
 70
     1
102
RTVSPropertyOp5
 70
     1
102
RTVSPropertyOp6
 70
     1
102
RTVSPropertyOp7
 70
     1
102
RTVSPropertyOp8
 70
     1
102
RTVSPropertyOp9
 70
     1
102
RTVSPropertyOp10
 70
     1
102
RTVSPropertyOp11
 70
     1
102
RTVSPropertyOp12
 70
     1
102
RTVSPropertyOp13
 70
     1
102
RTVSPropertyOp14
 70
     1
102
RTVSPropertyOp15
 70
     1
102
RTVSPropertyOp16
 70
     1
102
RTVSPropertyOp17
 70
     1
102
RTVSPropertyOp18
 70
     1
102
RTVSPropertyOp19
 70
     1
102
RTVSPropertyOp20
 70
     1
102
RTVSPropertyOp21
 70
     1
102
RTVSPropertyOp22
 70
     1
102
RTVSPropertyOp23
 70
     1
102
RTVSPropertyOp24
 70
     1
102
RTVSPropertyOp25
 70
     1
102
RTVSPropertyOp26
 70
     1
102
RTVSPropertyOp27
 70
     1
102
RTVSPropertyOp28
 70
     1
102
RTVSPropertyOp29
 70
     1
102
RTVSPropertyOp30
 70
     1
102
RTVSPropertyOp31
 70
     1
102
RTVSPropertyOp32
 70
     1
  0
XRECORD
  5
25A
102
{ACAD_REACTORS
330
259
102
}
330
259
100
AcDbXrecord
280
     1
102
RTVSPropertyOp0
 70
     1
102
RTVSPropertyOp1
 70
     1
102
RTVSPropertyOp2
 70
     1
102
RTVSPropertyOp3
 70
     1
102
RTVSPropertyOp4
 70
     1
102
RTVSPropertyOp5
 70
     1
102
RTVSPropertyOp6
 70
     1
102
RTVSPropertyOp7
 70
     1
102
RTVSPropertyOp8
 70
     1
102
RTVSPropertyOp9
 70
     1
102
RTVSPropertyOp10
 70
     1
102
RTVSPropertyOp11
 70
     1
102
RTVSPropertyOp12
 70
     1
102
RTVSPropertyOp13
 70
     1
102
RTVSPropertyOp14
 70
     1
102
RTVSPropertyOp15
 70
     1
102
RTVSPropertyOp16
 70
     1
102
RTVSPropertyOp17
 70
     1
102
RTVSPropertyOp18
 70
     1
102
RTVSPropertyOp19
 70
     1
102
RTVSPropertyOp20
 70
     1
102
RTVSPropertyOp21
 70
     1
102
RTVSPropertyOp22
 70
     1
102
RTVSPropertyOp23
 70
     1
102
RTVSPropertyOp24
 70
     1
102
RTVSPropertyOp25
 70
     1
102
RTVSPropertyOp26
 70
     1
102
RTVSPropertyOp27
 70
     1
102
RTVSPropertyOp28
 70
     1
102
RTVSPropertyOp29
 70
     1
102
RTVSPropertyOp30
 70
     1
102
RTVSPropertyOp31
 70
     1
102
RTVSPropertyOp32
 70
     1
  0
XRECORD
  5
25C
102
{ACAD_REACTORS
330
25B
102
}
330
25B
100
AcDbXrecord
280
     1
102
RTVSPropertyOp0
 70
     1
102
RTVSPropertyOp1
 70
     1
102
RTVSPropertyOp2
 70
     1
102
RTVSPropertyOp3
 70
     1
102
RTVSPropertyOp4
 70
     1
102
RTVSPropertyOp5
 70
     1
102
RTVSPropertyOp6
 70
     1
102
RTVSPropertyOp7
 70
     1
102
RTVSPropertyOp8
 70
     1
102
RTVSPropertyOp9
 70
     1
102
RTVSPropertyOp10
 70
     1
102
RTVSPropertyOp11
 70
     1
102
RTVSPropertyOp12
 70
     1
102
RTVSPropertyOp13
 70
     1
102
RTVSPropertyOp14
 70
     1
102
RTVSPropertyOp15
 70
     1
102
RTVSPropertyOp16
 70
     1
102
RTVSPropertyOp17
 70
     1
102
RTVSPropertyOp18
 70
     1
102
RTVSPropertyOp19
 70
     1
102
RTVSPropertyOp20
 70
     1
102
RTVSPropertyOp21
 70
     1
102
RTVSPropertyOp22
 70
     1
102
RTVSPropertyOp23
 70
     1
102
RTVSPropertyOp24
 70
     1
102
RTVSPropertyOp25
 70
     1
102
RTVSPropertyOp26
 70
     1
102
RTVSPropertyOp27
 70
     1
102
RTVSPropertyOp28
 70
     1
102
RTVSPropertyOp29
 70
     1
102
RTVSPropertyOp30
 70
     1
102
RTVSPropertyOp31
 70
     1
102
RTVSPropertyOp32
 70
     1
  0
XRECORD
  5
270
102
{ACAD_REACTORS
330
26F
102
}
330
26F
100
AcDbXrecord
280
     1
102
RTVSPropertyOp0
 70
     1
102
RTVSPropertyOp1
 70
     1
102
RTVSPropertyOp2
 70
     1
102
RTVSPropertyOp3
 70
     1
102
RTVSPropertyOp4
 70
     1
102
RTVSPropertyOp5
 70
     1
102
RTVSPropertyOp6
 70
     1
102
RTVSPropertyOp7
 70
     1
102
RTVSPropertyOp8
 70
     1
102
RTVSPropertyOp9
 70
     1
102
RTVSPropertyOp10
 70
     1
102
RTVSPropertyOp11
 70
     1
102
RTVSPropertyOp12
 70
     1
102
RTVSPropertyOp13
 70
     1
102
RTVSPropertyOp14
 70
     1
102
RTVSPropertyOp15
 70
     1
102
RTVSPropertyOp16
 70
     1
102
RTVSPropertyOp17
 70
     1
102
RTVSPropertyOp18
 70
     1
102
RTVSPropertyOp19
 70
     1
102
RTVSPropertyOp20
 70
     1
102
RTVSPropertyOp21
 70
     1
102
RTVSPropertyOp22
 70
     1
102
RTVSPropertyOp23
 70
     1
102
RTVSPropertyOp24
 70
     1
102
RTVSPropertyOp25
 70
     1
102
RTVSPropertyOp26
 70
     1
102
RTVSPropertyOp27
 70
     1
102
RTVSPropertyOp28
 70
     1
102
RTVSPropertyOp29
 70
     1
102
RTVSPropertyOp30
 70
     1
102
RTVSPropertyOp31
 70
     1
102
RTVSPropertyOp32
 70
     1
  0
XRECORD
  5
266
102
{ACAD_REACTORS
330
265
102
}
330
265
100
AcDbXrecord
280
     1
102
RTVSPropertyOp0
 70
     1
102
RTVSPropertyOp1
 70
     1
102
RTVSPropertyOp2
 70
     1
102
RTVSPropertyOp3
 70
     1
102
RTVSPropertyOp4
 70
     1
102
RTVSPropertyOp5
 70
     1
102
RTVSPropertyOp6
 70
     1
102
RTVSPropertyOp7
 70
     1
102
RTVSPropertyOp8
 70
     1
102
RTVSPropertyOp9
 70
     1
102
RTVSPropertyOp10
 70
     1
102
RTVSPropertyOp11
 70
     1
102
RTVSPropertyOp12
 70
     1
102
RTVSPropertyOp13
 70
     1
102
RTVSPropertyOp14
 70
     1
102
RTVSPropertyOp15
 70
     1
102
RTVSPropertyOp16
 70
     1
102
RTVSPropertyOp17
 70
     1
102
RTVSPropertyOp18
 70
     1
102
RTVSPropertyOp19
 70
     1
102
RTVSPropertyOp20
 70
     1
102
RTVSPropertyOp21
 70
     1
102
RTVSPropertyOp22
 70
     1
102
RTVSPropertyOp23
 70
     1
102
RTVSPropertyOp24
 70
     1
102
RTVSPropertyOp25
 70
     1
102
RTVSPropertyOp26
 70
     1
102
RTVSPropertyOp27
 70
     1
102
RTVSPropertyOp28
 70
     1
102
RTVSPropertyOp29
 70
     1
102
RTVSPropertyOp30
 70
     1
102
RTVSPropertyOp31
 70
     1
102
RTVSPropertyOp32
 70
     1
  0
XRECORD
  5
26E
102
{ACAD_REACTORS
330
26D
102
}
330
26D
100
AcDbXrecord
280
     1
102
RTVSPropertyOp0
 70
     1
102
RTVSPropertyOp1
 70
     1
102
RTVSPropertyOp2
 70
     1
102
RTVSPropertyOp3
 70
     1
102
RTVSPropertyOp4
 70
     1
102
RTVSPropertyOp5
 70
     1
102
RTVSPropertyOp6
 70
     1
102
RTVSPropertyOp7
 70
     1
102
RTVSPropertyOp8
 70
     1
102
RTVSPropertyOp9
 70
     1
102
RTVSPropertyOp10
 70
     1
102
RTVSPropertyOp11
 70
     1
102
RTVSPropertyOp12
 70
     1
102
RTVSPropertyOp13
 70
     1
102
RTVSPropertyOp14
 70
     1
102
RTVSPropertyOp15
 70
     1
102
RTVSPropertyOp16
 70
     1
102
RTVSPropertyOp17
 70
     1
102
RTVSPropertyOp18
 70
     1
102
RTVSPropertyOp19
 70
     1
102
RTVSPropertyOp20
 70
     1
102
RTVSPropertyOp21
 70
     1
102
RTVSPropertyOp22
 70
     1
102
RTVSPropertyOp23
 70
     1
102
RTVSPropertyOp24
 70
     1
102
RTVSPropertyOp25
 70
     1
102
RTVSPropertyOp26
 70
     1
102
RTVSPropertyOp27
 70
     1
102
RTVSPropertyOp28
 70
     1
102
RTVSPropertyOp29
 70
     1
102
RTVSPropertyOp30
 70
     1
102
RTVSPropertyOp31
 70
     1
102
RTVSPropertyOp32
 70
     1
  0
ENDSEC
  0
EOF
